<?xml version="1.0" standalone="no"?>
<!DOCTYPE svg PUBLIC "-//W3C//DTD SVG 1.1//EN" "http://www.w3.org/Graphics/SVG/1.1/DTD/svg11.dtd" >
<svg>
<metadata>
Created by FontForge 20090622 at Thu Aug 11 10:34:02 2016
 By deploy user
Copyright 2010, 2012 Adobe Systems Incorporated. All Rights Reserved.
</metadata>
<defs>
<font id="SourceSansPro-Light" horiz-adv-x="0" >
  <font-face 
    font-family="Source Sans Pro Light"
    font-weight="300"
    font-stretch="normal"
    units-per-em="1000"
    panose-1="2 11 4 3 3 4 3 2 2 4"
    ascent="750"
    descent="-250"
    x-height="480"
    cap-height="659"
    bbox="-169 -286 1122 939"
    underline-thickness="50"
    underline-position="-50"
    unicode-range="U+000D-U+FB02"
  />
<missing-glyph horiz-adv-x="632" 
d="M94 660h444v-660h-444v660zM286 340l-147 260v-516zM491 84v516l-145 -260zM470 39l-93 164l-59 105h-4l-61 -105l-95 -164h312zM318 372l53 92l86 155h-284l87 -155l54 -92h4z" />
    <glyph glyph-name="f_f" unicode="ff" horiz-adv-x="526" 
d="M542 679q-15 8 -29.5 11t-28.5 3q-38 0 -56.5 -28.5t-18.5 -80.5v-104h111v-38h-111v-442h-44v442h-222v-442h-44v442h-65v34l65 4v89q0 75 34 113.5t96 38.5q20 0 40.5 -4.5t40.5 -13.5l-12 -36q-18 9 -35 12.5t-34 3.5q-43 0 -64.5 -30.5t-21.5 -86.5v-86h222v107
q0 72 31 108t88 36q35 0 70 -16z" />
    <glyph glyph-name="f_t" unicode="ft" horiz-adv-x="539" 
d="M528 6q-21 -8 -42.5 -13t-36.5 -5q-35 0 -57.5 10.5t-36.5 29.5t-19.5 46t-5.5 59v309h-187v-442h-44v442h-66v34l66 4v107q0 72 31 108t88 36q35 0 70 -16l-12 -36q-15 8 -29.5 11t-28.5 3q-38 0 -56.5 -28.5t-18.5 -80.5v-104h188l6 139h37v-139h140v-38h-140v-313
q0 -23 3.5 -41.5t12.5 -32t25 -21t41 -7.5q14 0 30.5 4.5t29.5 10.5z" />
    <glyph glyph-name=".notdef" horiz-adv-x="632" 
d="M94 660h444v-660h-444v660zM286 340l-147 260v-516zM491 84v516l-145 -260zM470 39l-93 164l-59 105h-4l-61 -105l-95 -164h312zM318 372l53 92l86 155h-284l87 -155l54 -92h4z" />
    <glyph glyph-name="NULL" 
 />
    <glyph glyph-name="NULL" 
 />
    <glyph glyph-name="CR" unicode="&#xd;" horiz-adv-x="199" 
 />
    <glyph glyph-name="space" unicode=" " horiz-adv-x="199" 
 />
    <glyph glyph-name="A" unicode="A" horiz-adv-x="519" 
d="M376 265l-42 123l-38 113t-35 115h-4q-17 -61 -35 -115l-38 -113l-42 -123h234zM389 226h-261l-77 -226h-47l233 659h46l232 -659h-49z" />
    <glyph glyph-name="B" unicode="B" horiz-adv-x="571" 
d="M94 659h178q99 0 158 -39t59 -121q0 -52 -29 -90.5t-88 -53.5v-4q73 -11 115.5 -50.5t42.5 -108.5q0 -48 -17.5 -84t-49.5 -60t-77 -36t-101 -12h-191v659zM253 369q102 0 146 33t44 98q0 64 -46.5 92.5t-137.5 28.5h-119v-252h113zM273 38q99 0 155 37t56 117
q0 71 -55 105.5t-156 34.5h-133v-294h133z" />
    <glyph glyph-name="C" unicode="C" horiz-adv-x="557" 
d="M51 331q0 78 20.5 141t57.5 107.5t89 68t115 23.5q58 0 101.5 -24t69.5 -55l-27 -30q-27 30 -63 48.5t-81 18.5q-54 0 -97.5 -21t-73.5 -59.5t-46.5 -93.5t-16.5 -124t16 -124.5t46 -94.5t72.5 -60.5t95.5 -21.5q51 0 91 20t76 61l27 -29q-38 -44 -84.5 -69t-111.5 -25
q-61 0 -111.5 24t-87 68.5t-57 108t-20.5 142.5z" />
    <glyph glyph-name="D" unicode="D" horiz-adv-x="599" 
d="M94 659h152q76 0 132.5 -23t93.5 -66t55.5 -103t18.5 -135t-18.5 -136.5t-55.5 -105t-93 -67t-132 -23.5h-153v659zM241 39q67 0 115.5 21.5t80 60.5t46.5 92.5t15 118.5q0 64 -15 117t-46.5 91t-80 59t-115.5 21h-101v-581h101z" />
    <glyph glyph-name="E" unicode="E" horiz-adv-x="507" 
d="M94 659h360v-40h-314v-249h264v-40h-264v-290h324v-40h-370v659z" />
    <glyph glyph-name="F" unicode="F" horiz-adv-x="469" 
d="M94 659h359v-40h-313v-262h264v-40h-264v-317h-46v659z" />
    <glyph glyph-name="G" unicode="G" horiz-adv-x="597" 
d="M51 331q0 78 21 141t59.5 107.5t92.5 68t119 23.5q33 0 60.5 -7t49.5 -18.5t39 -25.5t30 -28l-27 -30q-26 28 -62 47.5t-90 19.5q-57 0 -102 -21t-76.5 -59.5t-48.5 -93.5t-17 -124t16 -124.5t47 -94.5t75.5 -60.5t100.5 -21.5q45 0 84 13t63 37v205h-157v39h201v-261
q-31 -33 -80.5 -54t-114.5 -21q-63 0 -115.5 24t-89.5 68.5t-57.5 108t-20.5 142.5z" />
    <glyph glyph-name="H" unicode="H" horiz-adv-x="632" 
d="M94 659h46v-289h352v289h46v-659h-46v330h-352v-330h-46v659z" />
    <glyph glyph-name="I" unicode="I" horiz-adv-x="233" 
d="M94 659h46v-659h-46v659z" />
    <glyph glyph-name="J" unicode="J" horiz-adv-x="455" 
d="M72 108q25 -42 55 -60t72 -18q60 0 89.5 36.5t29.5 117.5v475h46v-480q0 -40 -9 -74.5t-28.5 -60.5t-50.5 -41t-76 -15q-56 0 -96.5 25t-66.5 72z" />
    <glyph glyph-name="K" unicode="K" horiz-adv-x="551" 
d="M94 659h46v-366h2l319 366h54l-210 -244l239 -415h-53l-217 380l-134 -153v-227h-46v659z" />
    <glyph glyph-name="L" unicode="L" horiz-adv-x="460" 
d="M94 659h46v-619h303v-40h-349v659z" />
    <glyph glyph-name="M" unicode="M" horiz-adv-x="699" 
d="M94 659h64l138 -387l52 -146h4l51 146l137 387h65v-659h-45v433q0 41 2 88.5t4 89.5h-4l-51 -145l-142 -394h-40l-142 394l-52 145h-4q2 -42 3.5 -89.5t1.5 -88.5v-433h-42v659z" />
    <glyph glyph-name="N" unicode="N" horiz-adv-x="629" 
d="M94 659h48l277 -465l75 -131h4l-4 96t-2 96v404h43v-659h-48l-277 465l-75 131h-4l4 -93.5t2 -93.5v-409h-43v659z" />
    <glyph glyph-name="O" unicode="O" horiz-adv-x="645" 
d="M323 -12q-60 0 -110 24.5t-86 69.5t-56 108.5t-20 141.5t20 140.5t56 107t86 68t110 23.5q59 0 109 -23.5t86 -68t56 -107t20 -140.5t-20 -141.5t-56 -108.5t-86 -69.5t-109 -24.5zM323 30q50 0 91 21.5t70.5 61t45.5 95t16 124.5q0 68 -16 123t-45.5 93.5t-70.5 59.5
t-91 21t-91.5 -21t-71 -59.5t-45.5 -93.5t-16 -123q0 -69 16 -124.5t45.5 -95t71 -61t91.5 -21.5z" />
    <glyph glyph-name="P" unicode="P" horiz-adv-x="551" 
d="M94 659h180q55 0 98.5 -9.5t73.5 -31.5t46 -57t16 -86q0 -97 -62 -144.5t-172 -47.5h-134v-283h-46v659zM262 322q102 0 150.5 36t48.5 117q0 42 -12.5 69.5t-37 44.5t-62 24t-87.5 7h-122v-298h122z" />
    <glyph glyph-name="Q" unicode="Q" horiz-adv-x="645" 
d="M99 332q0 -69 16 -124.5t45 -95t70.5 -61t91.5 -21.5t91 21.5t70.5 61t45.5 95t16 124.5q0 68 -16 123t-45.5 93.5t-70.5 59.5t-91 21t-91.5 -21t-70.5 -59.5t-45 -93.5t-16 -123zM596 -144q-13 -4 -34.5 -7.5t-46.5 -3.5q-83 0 -138.5 41t-80.5 103q-54 5 -99 31.5
t-77.5 71t-50.5 105.5t-18 135q0 78 20 140.5t56 107t86 68t109 23.5q60 0 110 -23.5t86 -68t56 -107t20 -140.5q0 -74 -18 -135t-50.5 -105.5t-78 -71t-100.5 -31.5q23 -50 66.5 -76t105.5 -26q23 0 38.5 2.5t28.5 6.5z" />
    <glyph glyph-name="R" unicode="R" horiz-adv-x="553" 
d="M270 341q88 0 134.5 35.5t46.5 108.5q0 74 -46.5 104.5t-134.5 30.5h-130v-279h130zM458 0l-178 303h-140v-303h-46v659h188q49 0 89 -9.5t68.5 -30.5t44 -54t15.5 -80q0 -79 -45.5 -123.5t-123.5 -55.5l181 -306h-53z" />
    <glyph glyph-name="S" unicode="S" horiz-adv-x="514" 
d="M72 119q36 -41 86 -65t108 -24q75 0 119.5 36.5t44.5 95.5q0 31 -9.5 52t-25.5 36.5t-38 27t-46 22.5l-100 45q-21 9 -44.5 22t-43 32.5t-32.5 46t-13 63.5q0 36 14.5 65.5t40 51t60.5 33.5t76 12q60 0 107 -23.5t77 -55.5l-27 -31q-29 31 -68 49.5t-89 18.5
q-66 0 -105.5 -32t-39.5 -86q0 -29 11 -49t28 -34.5t37 -25t38 -18.5l100 -44q27 -12 52 -27t44 -35t30.5 -47.5t11.5 -65.5t-15 -70.5t-42.5 -56t-66.5 -37t-87 -13.5q-72 0 -127.5 27.5t-94.5 71.5z" />
    <glyph glyph-name="T" unicode="T" horiz-adv-x="517" 
d="M236 619h-210v40h465v-40h-209v-619h-46v619z" />
    <glyph glyph-name="U" unicode="U" horiz-adv-x="627" 
d="M91 659h46v-401q0 -66 14.5 -109.5t38.5 -70t56 -37.5t67 -11q36 0 68 11t57 37.5t39.5 70t14.5 109.5v401h44v-406q0 -77 -19 -128t-50 -81.5t-71.5 -43t-82.5 -12.5q-43 0 -83 12.5t-71 43t-49.5 81.5t-18.5 128v406z" />
    <glyph glyph-name="V" unicode="V" horiz-adv-x="484" 
d="M1 659h49l122 -385l17.5 -57l16.5 -53.5l16.5 -53.5l18.5 -57h4l35.5 110.5l34.5 110.5l122 385h46l-215 -659h-50z" />
    <glyph glyph-name="W" unicode="W" horiz-adv-x="763" 
d="M24 659h49l82 -388l23.5 -107.5l22.5 -107.5h4q11 54 24 107.5l26 107.5l104 388h46l104 -388l26 -107.5l26 -107.5h4l22 107.5l22 107.5l82 388h46l-148 -659h-51l-120 452l-17.5 74.5l-17.5 74.5h-4q-8 -39 -17.5 -74.5t-18.5 -74.5l-118 -452h-51z" />
    <glyph glyph-name="X" unicode="X" horiz-adv-x="475" 
d="M211 341l-184 318h50l109 -194l24.5 -43t28.5 -47h4l25 47l24 43l108 194h47l-184 -320l198 -339h-50l-115 202l-28.5 50l-31.5 55h-4l-29.5 -55l-27.5 -50l-114 -202h-47z" />
    <glyph glyph-name="Y" unicode="Y" horiz-adv-x="440" 
d="M197 267l-198 392h49l100 -206l34 -71l36 -71h4l37 71l35 71l100 206h47l-198 -392v-267h-46v267z" />
    <glyph glyph-name="Z" unicode="Z" horiz-adv-x="531" 
d="M46 27l380 592h-346v40h403v-27l-379 -592h383v-40h-441v27z" />
    <glyph glyph-name="a" unicode="a" horiz-adv-x="499" 
d="M65 120q0 79 75 121t235 60q1 27 -3.5 54.5t-17 49t-35 35t-57.5 13.5q-49 0 -89 -19t-64 -37l-20 33q13 9 31.5 20t41 20t49.5 15.5t56 6.5q43 0 72 -14.5t47 -39.5t25.5 -58.5t7.5 -72.5v-307h-37l-5 62h-2q-37 -29 -79.5 -51.5t-90.5 -22.5q-29 0 -54 8t-44.5 24
t-30.5 41t-11 59zM111 122q0 -52 30 -74t71 -22q42 0 80 20t83 58v163q-74 -9 -124.5 -22t-81.5 -31t-44.5 -41t-13.5 -51z" />
    <glyph glyph-name="b" unicode="b" horiz-adv-x="544" 
d="M92 719h44v-208l-2 -94q37 31 79 53t87 22q96 0 144 -66.5t48 -178.5q0 -61 -17 -109t-46.5 -81.5t-68 -51t-80.5 -17.5q-35 0 -72.5 15.5t-71.5 41.5h-2l-5 -45h-37v719zM136 89q40 -34 77 -48t65 -14q36 0 67 16t53 45t34.5 69.5t12.5 89.5q0 44 -8.5 82t-26.5 65.5
t-47 43t-70 15.5q-36 0 -75 -20.5t-82 -58.5v-285z" />
    <glyph glyph-name="c" unicode="c" horiz-adv-x="449" 
d="M52 239q0 60 18 107.5t48 79.5t69.5 49t83.5 17q50 0 83.5 -18t57.5 -41l-26 -31q-23 22 -51 36.5t-63 14.5q-37 0 -68.5 -15.5t-55 -44t-37 -67.5t-13.5 -87q0 -47 12.5 -86t35 -67t55 -43.5t71.5 -15.5q38 0 70.5 16t57.5 39l23 -30q-31 -28 -69 -46t-84 -18
q-47 0 -86.5 17t-69 49t-46 78.5t-16.5 106.5z" />
    <glyph glyph-name="d" unicode="d" horiz-adv-x="544" 
d="M52 239q0 58 17 105t46.5 80t68 50.5t81.5 17.5q44 0 76.5 -15.5t68.5 -43.5l-2 88v198h44v-719h-38l-4 62h-3q-29 -29 -68.5 -51.5t-87.5 -22.5q-91 0 -145 64.5t-54 186.5zM99 239q0 -48 10.5 -87t30.5 -66.5t49.5 -43t67.5 -15.5q40 0 76.5 20.5t74.5 58.5v285
q-38 34 -71.5 48t-68.5 14q-36 0 -67 -16.5t-53.5 -45t-35.5 -68t-13 -84.5z" />
    <glyph glyph-name="e" unicode="e" horiz-adv-x="483" 
d="M52 239q0 59 17.5 106t47 79.5t67 50t77.5 17.5q86 0 135 -58t49 -164v-18t-2 -18h-346q1 -45 14 -83.5t36.5 -66t56.5 -43t74 -15.5q39 0 70.5 11.5t58.5 31.5l18 -34q-29 -17 -63.5 -32t-87.5 -15q-46 0 -86.5 17t-70.5 49.5t-47.5 79t-17.5 105.5zM403 268
q0 93 -38 139.5t-103 46.5q-31 0 -59 -13t-50.5 -37t-37 -58.5t-18.5 -77.5h306z" />
    <glyph glyph-name="f" unicode="f" horiz-adv-x="263" 
d="M276 679q-15 8 -29.5 11t-28.5 3q-38 0 -56.5 -28.5t-18.5 -80.5v-104h111v-38h-111v-442h-44v442h-66v34l66 4v107q0 72 31 108t88 36q35 0 70 -16z" />
    <glyph glyph-name="g" unicode="g" horiz-adv-x="487" 
d="M94 -94q0 -45 41.5 -73t118.5 -28q40 0 73 10.5t56 27.5t35.5 38.5t12.5 44.5q0 40 -28.5 56.5t-82.5 16.5h-103q-8 0 -24.5 1.5t-35.5 6.5q-33 -23 -48 -49t-15 -52zM52 -98q0 32 19 62t52 54v4q-18 11 -30 30t-12 47q0 32 18 54.5t34 33.5v4q-23 20 -41.5 54t-18.5 78
q0 37 13 68t36 53.5t54 35t66 12.5q20 0 36 -3.5t27 -8.5h163v-37h-112q23 -20 38 -51.5t15 -69.5q0 -37 -13 -68t-35.5 -53.5t-53 -35t-65.5 -12.5q-20 0 -41.5 5t-38.5 15q-16 -13 -27.5 -29t-11.5 -40q0 -26 19 -44.5t73 -18.5h103q81 0 119.5 -26.5t38.5 -83.5
q0 -31 -16 -60.5t-45.5 -52t-71.5 -36t-94 -13.5q-91 0 -144 36t-53 97zM242 188q25 0 47.5 9.5t39.5 27.5t27 43t10 55t-10 55t-26.5 42t-39.5 26.5t-48 9.5q-26 0 -48.5 -9.5t-39.5 -26.5t-27 -41.5t-10 -55.5q0 -30 10 -55t27.5 -43t40 -27.5t47.5 -9.5z" />
    <glyph glyph-name="h" unicode="h" horiz-adv-x="528" 
d="M92 719h44v-208v-106q38 38 77 62.5t89 24.5q75 0 110 -45t35 -139v-308h-44v302q0 77 -25.5 113.5t-84.5 36.5q-43 0 -78 -22.5t-79 -67.5v-362h-44v719z" />
    <glyph glyph-name="i" unicode="i" horiz-adv-x="229" 
d="M115 596q-17 0 -28.5 11t-11.5 28q0 19 11.5 29.5t28.5 10.5t28.5 -10.5t11.5 -29.5q0 -17 -11.5 -28t-28.5 -11zM92 480h44v-480h-44v480z" />
    <glyph glyph-name="j" unicode="j" horiz-adv-x="229" 
d="M92 480h45v-569q0 -71 -26 -105.5t-82 -34.5q-17 0 -34 3.5t-28 8.5l11 36q9 -3 22.5 -6.5t27.5 -3.5q40 0 52 29.5t12 75.5v566zM115 596q-16 0 -28 11t-12 28q0 19 12 29.5t28 10.5q17 0 29 -10.5t12 -29.5q0 -17 -12 -28t-29 -11z" />
    <glyph glyph-name="k" unicode="k" horiz-adv-x="464" 
d="M92 719h44v-530h2l237 291h51l-156 -190l182 -290h-49l-159 257l-108 -126v-131h-44v719z" />
    <glyph glyph-name="l" unicode="l" horiz-adv-x="237" 
d="M92 719h44v-661q0 -16 6 -23.5t15 -7.5h6.5t11.5 2l8 -36q-7 -2 -14 -3.5t-18 -1.5q-59 0 -59 76v655z" />
    <glyph glyph-name="m" unicode="m" horiz-adv-x="812" 
d="M92 480h38l4 -74h3q32 37 71.5 61.5t79.5 24.5q58 0 89 -26.5t44 -71.5q42 45 81.5 71.5t81.5 26.5q144 0 144 -184v-308h-45v302q0 77 -26 113.5t-81 36.5q-65 0 -144 -90v-362h-44v302q0 77 -26 113.5t-82 36.5q-65 0 -144 -90v-362h-44v480z" />
    <glyph glyph-name="n" unicode="n" horiz-adv-x="532" 
d="M92 480h38l4 -74h3q37 37 76 61.5t89 24.5q75 0 110 -45t35 -139v-308h-44v302q0 77 -25.5 113.5t-84.5 36.5q-43 0 -78 -22.5t-79 -67.5v-362h-44v480z" />
    <glyph glyph-name="o" unicode="o" horiz-adv-x="535" 
d="M52 239q0 60 17.5 107.5t47 79.5t68.5 49t82 17t82.5 -17t69 -49t47 -79.5t17.5 -107.5t-17.5 -106.5t-47 -78.5t-69 -49t-82.5 -17t-82 17t-68.5 49t-47 78.5t-17.5 106.5zM98 239q0 -47 13 -86t35.5 -67t53.5 -43.5t67 -15.5t67.5 15.5t54 43.5t35.5 67t13 86
q0 48 -13 87t-35.5 67.5t-54 44t-67.5 15.5t-67 -15.5t-53.5 -44t-35.5 -67.5t-13 -87z" />
    <glyph glyph-name="p" unicode="p" horiz-adv-x="544" 
d="M136 -42v-175h-44v697h38l4 -60h3q35 28 76.5 50t86.5 22q96 0 144 -66.5t48 -178.5q0 -61 -17 -109t-46.5 -81.5t-68 -51t-80.5 -17.5q-34 0 -70 15.5t-74 43.5v-89zM136 89q42 -34 78 -48t64 -14q36 0 67 16t53 45t34.5 69.5t12.5 89.5q0 44 -8.5 82t-26.5 65.5t-47 43
t-70 15.5q-36 0 -74.5 -20.5t-82.5 -58.5v-285z" />
    <glyph glyph-name="q" unicode="q" horiz-adv-x="537" 
d="M52 239q0 58 17 105t46.5 80t68 50.5t81.5 17.5q44 0 76.5 -15t66.5 -41h2l5 44h37v-697h-44v185l2 93q-32 -29 -71.5 -51t-87.5 -22q-91 0 -145 64.5t-54 186.5zM99 239q0 -48 10.5 -87t30.5 -66.5t49.5 -43t67.5 -15.5q40 0 76.5 20.5t74.5 58.5v285q-38 34 -71.5 48
t-68.5 14q-36 0 -67 -16.5t-53.5 -45t-35.5 -68t-13 -84.5z" />
    <glyph glyph-name="r" unicode="r" horiz-adv-x="317" 
d="M92 480h38l4 -89h3q24 45 58.5 73t77.5 28q14 0 25 -2t23 -8l-10 -40q-12 5 -21 6.5t-23 1.5q-32 0 -67.5 -27.5t-63.5 -95.5v-327h-44v480z" />
    <glyph glyph-name="s" unicode="s" horiz-adv-x="405" 
d="M58 87q31 -26 66 -43.5t87 -17.5q57 0 85.5 28.5t28.5 66.5q0 22 -10.5 39t-27.5 29t-37.5 21t-41.5 17l-54.5 21t-49.5 26.5t-35.5 37t-13.5 52.5q0 26 10 49.5t30 41t48.5 27.5t66.5 10t74.5 -14t62.5 -36l-24 -31q-24 18 -51 30.5t-64 12.5q-28 0 -48 -7.5
t-33.5 -19.5t-20 -28t-6.5 -32q0 -20 9.5 -34.5t25.5 -26t36.5 -20l41.5 -16.5l56 -22t50.5 -27t36.5 -39.5t14 -58.5q0 -27 -10.5 -51.5t-31.5 -43t-51 -29.5t-69 -11q-54 0 -99 19.5t-77 46.5z" />
    <glyph glyph-name="t" unicode="t" horiz-adv-x="312" 
d="M103 442h-75v34l76 4l6 139h38v-139h139v-38h-139v-313q0 -23 3.5 -41.5t12.5 -32t24.5 -21t40.5 -7.5q14 0 30.5 4.5t29.5 10.5l12 -36q-21 -8 -42 -13t-36 -5q-35 0 -58 10.5t-37 29.5t-19.5 46t-5.5 59v309z" />
    <glyph glyph-name="u" unicode="u" horiz-adv-x="529" 
d="M85 480h44v-302q0 -77 25.5 -113.5t83.5 -36.5q43 0 78 23.5t77 74.5v354h44v-480h-37l-5 80h-2q-35 -42 -74 -67t-89 -25q-75 0 -110 45t-35 139v308z" />
    <glyph glyph-name="v" unicode="v" horiz-adv-x="434" 
d="M12 480h48l108 -301q11 -35 24 -70t24 -68h4l24.5 68l24.5 70l108 301h45l-178 -480h-52z" />
    <glyph glyph-name="w" unicode="w" horiz-adv-x="685" 
d="M24 480h48l86 -311l17 -64.5l16 -63.5h4q8 32 17 63.5l18 64.5l87 311h53l87 -311l18 -64.5l18 -63.5h4q8 32 17 63.5t17 64.5l85 311h45l-138 -480h-58l-84 298q-11 35 -18.5 68.5t-18.5 68.5h-4q-8 -35 -17.5 -69.5t-20.5 -69.5l-83 -296h-53z" />
    <glyph glyph-name="x" unicode="x" horiz-adv-x="407" 
d="M177 251l-150 229h49l78 -122l24.5 -39.5l26.5 -39.5h4q13 20 24.5 39.5t24.5 39.5l75 122h46l-149 -233l163 -247h-49l-85 131l-28 45t-29 43h-4l-27.5 -43l-27.5 -45l-82 -131h-47z" />
    <glyph glyph-name="y" unicode="y" horiz-adv-x="436" 
d="M34 -170q8 -3 18 -5.5t21 -2.5q45 0 75 36t48 91l13 42l-197 489h48l116 -302l24.5 -66t27.5 -68h4l22.5 68l21.5 66l103 302h45l-190 -540q-10 -30 -24.5 -58.5t-34 -51t-45 -36t-57.5 -13.5q-27 0 -49 10l10 39v0z" />
    <glyph glyph-name="z" unicode="z" horiz-adv-x="404" 
d="M27 24l284 418h-253v38h310v-23l-283 -418h293v-39h-351v24z" />
    <glyph glyph-name="Agrave" unicode="&#xc0;" horiz-adv-x="519" 
d="M376 265l-42 123l-38 113t-35 115h-4q-17 -61 -35 -115l-38 -113l-42 -123h234zM389 226h-261l-77 -226h-47l233 659h46l232 -659h-49zM146 815h58l92 -106h-40z" />
    <glyph glyph-name="Aacute" unicode="&#xc1;" horiz-adv-x="519" 
d="M376 265l-42 123l-38 113t-35 115h-4q-17 -61 -35 -115l-38 -113l-42 -123h234zM389 226h-261l-77 -226h-47l233 659h46l232 -659h-49zM262 709h-40l92 106h58z" />
    <glyph glyph-name="Acircumflex" unicode="&#xc2;" horiz-adv-x="519" 
d="M376 265l-42 123l-38 113t-35 115h-4q-17 -61 -35 -115l-38 -113l-42 -123h234zM389 226h-261l-77 -226h-47l233 659h46l232 -659h-49zM142 709l96 106h42l96 -106h-40l-75 72h-4l-75 -72h-40z" />
    <glyph glyph-name="Atilde" unicode="&#xc3;" horiz-adv-x="519" 
d="M376 265l-42 123l-38 113t-35 115h-4q-17 -61 -35 -115l-38 -113l-42 -123h234zM389 226h-261l-77 -226h-47l233 659h46l232 -659h-49zM318 716q-20 0 -35.5 9t-29 19.5t-26.5 19.5t-28 9q-16 0 -27 -15.5t-14 -41.5h-29q1 17 6 33.5t14 29.5t21.5 21t29.5 8q20 0 35 -9
t28.5 -19.5t27 -19t28.5 -8.5q16 0 27 15t14 41h29q-1 -17 -6 -33t-14 -29.5t-21.5 -21.5t-29.5 -8z" />
    <glyph glyph-name="Adieresis" unicode="&#xc4;" horiz-adv-x="519" 
d="M376 265l-42 123l-38 113t-35 115h-4q-17 -61 -35 -115l-38 -113l-42 -123h234zM389 226h-261l-77 -226h-47l233 659h46l232 -659h-49zM180 725q-16 0 -26 9.5t-10 26.5t10 27t26 10t26.5 -10t10.5 -27t-10.5 -26.5t-26.5 -9.5zM338 725q-16 0 -26.5 9.5t-10.5 26.5
t10.5 27t26.5 10t26 -10t10 -27t-10 -26.5t-26 -9.5z" />
    <glyph glyph-name="Amacron" unicode="&#x100;" horiz-adv-x="519" 
d="M376 265l-42 123l-38 113t-35 115h-4q-17 -61 -35 -115l-38 -113l-42 -123h234zM389 226h-261l-77 -226h-47l233 659h46l232 -659h-49zM145 770h228v-36h-228v36z" />
    <glyph glyph-name="Abreve" unicode="&#x102;" horiz-adv-x="519" 
d="M376 265l-42 123l-38 113t-35 115h-4q-17 -61 -35 -115l-38 -113l-42 -123h234zM389 226h-261l-77 -226h-47l233 659h46l232 -659h-49zM259 711q-29 0 -49.5 10t-34.5 25t-21.5 33.5t-9.5 35.5h33q4 -26 23.5 -49t58.5 -23q19 0 33.5 6.5t24.5 16.5t16 23t8 26h33
q-2 -17 -9.5 -35.5t-21.5 -33.5t-35 -25t-49 -10z" />
    <glyph glyph-name="Aring" unicode="&#xc5;" horiz-adv-x="519" 
d="M376 265l-42 123l-38 113t-35 115h-4q-17 -61 -35 -115l-38 -113l-42 -123h234zM389 226h-261l-77 -226h-47l233 659h46l232 -659h-49zM259 700q-35 0 -58.5 22t-23.5 60q0 37 23.5 59.5t58.5 22.5q34 0 58 -22.5t24 -59.5q0 -38 -24 -60t-58 -22zM259 726q20 0 35.5 14
t15.5 42q0 26 -15.5 41t-35.5 15q-22 0 -37 -15t-15 -41q0 -28 15 -42t37 -14z" />
    <glyph glyph-name="uni01CD" unicode="&#x1cd;" horiz-adv-x="519" 
d="M376 265l-42 123l-38 113t-35 115h-4q-17 -61 -35 -115l-38 -113l-42 -123h234zM389 226h-261l-77 -226h-47l233 659h46l232 -659h-49zM376 815l-96 -106h-42l-96 106h40l75 -72h4l75 72h40z" />
    <glyph glyph-name="uni1EA0" unicode="&#x1ea0;" horiz-adv-x="519" 
d="M376 265l-42 123l-38 113t-35 115h-4q-17 -61 -35 -115l-38 -113l-42 -123h234zM389 226h-261l-77 -226h-47l233 659h46l232 -659h-49zM259 -194q-17 0 -27.5 11t-10.5 30q0 17 10.5 28t27.5 11t27.5 -11t10.5 -28q0 -19 -10.5 -30t-27.5 -11z" />
    <glyph glyph-name="uni1EA2" unicode="&#x1ea2;" horiz-adv-x="519" 
d="M376 265l-42 123l-38 113t-35 115h-4q-17 -61 -35 -115l-38 -113l-42 -123h234zM389 226h-261l-77 -226h-47l233 659h46l232 -659h-49zM227 729q27 8 45 20.5t18 33.5q0 45 -85 48l4 32q25 -1 47 -5.5t38.5 -13.5t26 -22.5t9.5 -32.5q0 -20 -8 -34t-21.5 -24t-30.5 -17
t-35 -12z" />
    <glyph glyph-name="uni1EA4" unicode="&#x1ea4;" horiz-adv-x="519" 
d="M376 265l-42 123l-38 113t-35 115h-4q-17 -61 -35 -115l-38 -113l-42 -123h234zM389 226h-261l-77 -226h-47l233 659h46l232 -659h-49zM409 876h48l-86 -106h-33zM239 809h40l91 -100h-39l-70 66h-4l-70 -66h-39z" />
    <glyph glyph-name="uni1EA6" unicode="&#x1ea6;" horiz-adv-x="519" 
d="M376 265l-42 123l-38 113t-35 115h-4q-17 -61 -35 -115l-38 -113l-42 -123h234zM389 226h-261l-77 -226h-47l233 659h46l232 -659h-49zM411 770h-33l-86 106h47zM239 809h40l91 -100h-39l-70 66h-4l-70 -66h-39z" />
    <glyph glyph-name="uni1EA8" unicode="&#x1ea8;" horiz-adv-x="519" 
d="M376 265l-42 123l-38 113t-35 115h-4q-17 -61 -35 -115l-38 -113l-42 -123h234zM389 226h-261l-77 -226h-47l233 659h46l232 -659h-49zM351 784q21 5 36 15t15 27q0 23 -18.5 31.5t-54.5 10.5l5 31q45 -2 75.5 -17.5t30.5 -50.5q0 -17 -7 -29.5t-18.5 -21.5t-25.5 -14.5
t-28 -8.5zM239 809h40l91 -100h-39l-70 66h-4l-70 -66h-39z" />
    <glyph glyph-name="uni1EAA" unicode="&#x1eaa;" horiz-adv-x="519" 
d="M376 265l-42 123l-38 113t-35 115h-4q-17 -61 -35 -115l-38 -113l-42 -123h234zM389 226h-261l-77 -226h-47l233 659h46l232 -659h-49zM239 809h40l91 -100h-39l-70 66h-4l-70 -66h-39zM137 843q1 14 5.5 28.5t13.5 26t21.5 19t30.5 7.5t31.5 -7.5t25 -17t22 -17
t23.5 -7.5q17 0 28 13t14 36h29q-1 -14 -5.5 -28.5t-13.5 -26t-21.5 -19t-30.5 -7.5t-31.5 7.5t-25 17t-22 17t-23.5 7.5q-17 0 -28 -13t-14 -36h-29z" />
    <glyph glyph-name="uni1EAC" unicode="&#x1eac;" horiz-adv-x="519" 
d="M376 265l-42 123l-38 113t-35 115h-4q-17 -61 -35 -115l-38 -113l-42 -123h234zM389 226h-261l-77 -226h-47l233 659h46l232 -659h-49zM142 709l96 106h42l96 -106h-40l-75 72h-4l-75 -72h-40zM259 -194q-17 0 -27.5 11t-10.5 30q0 17 10.5 28t27.5 11t27.5 -11t10.5 -28
q0 -19 -10.5 -30t-27.5 -11z" />
    <glyph glyph-name="uni1EAE" unicode="&#x1eae;" horiz-adv-x="519" 
d="M376 265l-42 123l-38 113t-35 115h-4q-17 -61 -35 -115l-38 -113l-42 -123h234zM389 226h-261l-77 -226h-47l233 659h46l232 -659h-49zM303 896h49l-95 -97h-33zM259 711q-27 0 -47 9.5t-34 24t-22 32t-10 34.5h31q6 -26 25 -47.5t57 -21.5t57 21.5t25 47.5h31
q-2 -17 -10 -34.5t-22 -32t-34 -24t-47 -9.5z" />
    <glyph glyph-name="uni1EB0" unicode="&#x1eb0;" horiz-adv-x="519" 
d="M376 265l-42 123l-38 113t-35 115h-4q-17 -61 -35 -115l-38 -113l-42 -123h234zM389 226h-261l-77 -226h-47l233 659h46l232 -659h-49zM294 799h-33l-95 97h49zM259 711q-27 0 -47 9.5t-34 24t-22 32t-10 34.5h31q6 -26 25 -47.5t57 -21.5t57 21.5t25 47.5h31
q-2 -17 -10 -34.5t-22 -32t-34 -24t-47 -9.5z" />
    <glyph glyph-name="uni1EB2" unicode="&#x1eb2;" horiz-adv-x="519" 
d="M376 265l-42 123l-38 113t-35 115h-4q-17 -61 -35 -115l-38 -113l-42 -123h234zM389 226h-261l-77 -226h-47l233 659h46l232 -659h-49zM232 824q21 6 36 15.5t15 26.5q0 23 -18.5 32t-54.5 11l5 30q45 -2 75.5 -17t30.5 -51q0 -17 -7 -29.5t-18.5 -21t-25.5 -14t-28 -9.5
zM259 711q-27 0 -47 9.5t-34 24t-22 32t-10 34.5h31q6 -26 25 -47.5t57 -21.5t57 21.5t25 47.5h31q-2 -17 -10 -34.5t-22 -32t-34 -24t-47 -9.5z" />
    <glyph glyph-name="uni1EB4" unicode="&#x1eb4;" horiz-adv-x="519" 
d="M376 265l-42 123l-38 113t-35 115h-4q-17 -61 -35 -115l-38 -113l-42 -123h234zM389 226h-261l-77 -226h-47l233 659h46l232 -659h-49zM259 711q-27 0 -47 9.5t-34 24t-22 32t-10 34.5h31q6 -26 25 -47.5t57 -21.5t57 21.5t25 47.5h31q-2 -17 -10 -34.5t-22 -32t-34 -24
t-47 -9.5zM137 843q1 14 5.5 28.5t13.5 26t21.5 19t30.5 7.5t31.5 -7.5t25 -17t22 -17t23.5 -7.5q17 0 28 13t14 36h29q-1 -14 -5.5 -28.5t-13.5 -26t-21.5 -19t-30.5 -7.5t-31.5 7.5t-25 17t-22 17t-23.5 7.5q-17 0 -28 -13t-14 -36h-29z" />
    <glyph glyph-name="uni1EB6" unicode="&#x1eb6;" horiz-adv-x="519" 
d="M376 265l-42 123l-38 113t-35 115h-4q-17 -61 -35 -115l-38 -113l-42 -123h234zM389 226h-261l-77 -226h-47l233 659h46l232 -659h-49zM259 711q-29 0 -49.5 10t-34.5 25t-21.5 33.5t-9.5 35.5h33q4 -26 23.5 -49t58.5 -23q19 0 33.5 6.5t24.5 16.5t16 23t8 26h33
q-2 -17 -9.5 -35.5t-21.5 -33.5t-35 -25t-49 -10zM259 -194q-17 0 -27.5 11t-10.5 30q0 17 10.5 28t27.5 11t27.5 -11t10.5 -28q0 -19 -10.5 -30t-27.5 -11z" />
    <glyph glyph-name="Aogonek" unicode="&#x104;" horiz-adv-x="519" 
d="M376 265l-42 123l-38 113t-35 115h-4q-17 -61 -35 -115l-38 -113l-42 -123h234zM551 -181q-12 -10 -30.5 -17t-35.5 -7q-35 0 -59.5 20t-24.5 62q0 38 22.5 71t49.5 52h-7l-77 226h-261l-77 -226h-47l233 659h46l232 -659q-32 -20 -53 -52.5t-21 -63.5q0 -26 15.5 -39
t34.5 -13q25 0 43 14z" />
    <glyph glyph-name="AE" unicode="&#xc6;" horiz-adv-x="802" 
d="M407 255v364h-4l-62 -113.5l-64 -117.5l-73 -133h203zM759 40v-40h-352v217h-224l-119 -217h-46l364 659h367v-40h-296v-249h245v-40h-245v-290h306z" />
    <glyph glyph-name="Ccedilla" unicode="&#xc7;" horiz-adv-x="557" 
d="M51 331q0 78 20.5 141t57.5 107.5t89 68t115 23.5q58 0 101.5 -24t69.5 -55l-27 -30q-27 30 -63 48.5t-81 18.5q-54 0 -97.5 -21t-73.5 -59.5t-46.5 -93.5t-16.5 -124t16 -124.5t46 -94.5t72.5 -60.5t95.5 -21.5q51 0 91 20t76 61l27 -29q-38 -44 -84.5 -69t-111.5 -25
q-61 0 -111.5 24t-87 68.5t-57 108t-20.5 142.5zM327 2h35l-29 -56q24 -8 42 -23.5t18 -45.5q0 -20 -10.5 -34.5t-28 -24.5t-40 -16.5t-46.5 -9.5l-7 30q42 6 67.5 18t25.5 33q0 23 -19 34t-48 19z" />
    <glyph glyph-name="Cacute" unicode="&#x106;" horiz-adv-x="557" 
d="M51 331q0 78 20.5 141t57.5 107.5t89 68t115 23.5q58 0 101.5 -24t69.5 -55l-27 -30q-27 30 -63 48.5t-81 18.5q-54 0 -97.5 -21t-73.5 -59.5t-46.5 -93.5t-16.5 -124t16 -124.5t46 -94.5t72.5 -60.5t95.5 -21.5q51 0 91 20t76 61l27 -29q-38 -44 -84.5 -69t-111.5 -25
q-61 0 -111.5 24t-87 68.5t-57 108t-20.5 142.5zM322 709h-40l92 106h58z" />
    <glyph glyph-name="Ccircumflex" unicode="&#x108;" horiz-adv-x="557" 
d="M51 331q0 78 20.5 141t57.5 107.5t89 68t115 23.5q58 0 101.5 -24t69.5 -55l-27 -30q-27 30 -63 48.5t-81 18.5q-54 0 -97.5 -21t-73.5 -59.5t-46.5 -93.5t-16.5 -124t16 -124.5t46 -94.5t72.5 -60.5t95.5 -21.5q51 0 91 20t76 61l27 -29q-38 -44 -84.5 -69t-111.5 -25
q-61 0 -111.5 24t-87 68.5t-57 108t-20.5 142.5zM202 709l96 106h42l96 -106h-40l-75 72h-4l-75 -72h-40z" />
    <glyph glyph-name="Ccaron" unicode="&#x10c;" horiz-adv-x="557" 
d="M51 331q0 78 20.5 141t57.5 107.5t89 68t115 23.5q58 0 101.5 -24t69.5 -55l-27 -30q-27 30 -63 48.5t-81 18.5q-54 0 -97.5 -21t-73.5 -59.5t-46.5 -93.5t-16.5 -124t16 -124.5t46 -94.5t72.5 -60.5t95.5 -21.5q51 0 91 20t76 61l27 -29q-38 -44 -84.5 -69t-111.5 -25
q-61 0 -111.5 24t-87 68.5t-57 108t-20.5 142.5zM436 815l-96 -106h-42l-96 106h40l75 -72h4l75 72h40z" />
    <glyph glyph-name="Cdotaccent" unicode="&#x10a;" horiz-adv-x="557" 
d="M51 331q0 78 20.5 141t57.5 107.5t89 68t115 23.5q58 0 101.5 -24t69.5 -55l-27 -30q-27 30 -63 48.5t-81 18.5q-54 0 -97.5 -21t-73.5 -59.5t-46.5 -93.5t-16.5 -124t16 -124.5t46 -94.5t72.5 -60.5t95.5 -21.5q51 0 91 20t76 61l27 -29q-38 -44 -84.5 -69t-111.5 -25
q-61 0 -111.5 24t-87 68.5t-57 108t-20.5 142.5zM319 721q-17 0 -28.5 11t-11.5 30q0 17 11.5 28t28.5 11t28.5 -11t11.5 -28q0 -19 -11.5 -30t-28.5 -11z" />
    <glyph glyph-name="Dcaron" unicode="&#x10e;" horiz-adv-x="599" 
d="M94 659h152q76 0 132.5 -23t93.5 -66t55.5 -103t18.5 -135t-18.5 -136.5t-55.5 -105t-93 -67t-132 -23.5h-153v659zM241 39q67 0 115.5 21.5t80 60.5t46.5 92.5t15 118.5q0 64 -15 117t-46.5 91t-80 59t-115.5 21h-101v-581h101zM415 815l-96 -106h-42l-96 106h40l75 -72
h4l75 72h40z" />
    <glyph glyph-name="uni1E0C" unicode="&#x1e0c;" horiz-adv-x="599" 
d="M94 659h152q76 0 132.5 -23t93.5 -66t55.5 -103t18.5 -135t-18.5 -136.5t-55.5 -105t-93 -67t-132 -23.5h-153v659zM241 39q67 0 115.5 21.5t80 60.5t46.5 92.5t15 118.5q0 64 -15 117t-46.5 91t-80 59t-115.5 21h-101v-581h101zM296 -194q-17 0 -27.5 11t-10.5 30
q0 17 10.5 28t27.5 11t27.5 -11t10.5 -28q0 -19 -10.5 -30t-27.5 -11z" />
    <glyph glyph-name="uni1E0E" unicode="&#x1e0e;" horiz-adv-x="599" 
d="M94 659h152q76 0 132.5 -23t93.5 -66t55.5 -103t18.5 -135t-18.5 -136.5t-55.5 -105t-93 -67t-132 -23.5h-153v659zM241 39q67 0 115.5 21.5t80 60.5t46.5 92.5t15 118.5q0 64 -15 117t-46.5 91t-80 59t-115.5 21h-101v-581h101zM409 -160h-228v36h228v-36z" />
    <glyph glyph-name="Dcroat" unicode="&#x110;" horiz-adv-x="616" 
d="M258 39q67 0 115.5 21.5t80 60.5t46.5 92.5t15 118.5q0 64 -15 117t-46.5 91t-80 59t-115.5 21h-101v-255h166v-33h-166v-293h101zM263 659q76 0 132.5 -23t93.5 -66t55.5 -103t18.5 -135t-18.5 -136.5t-55.5 -105t-93 -67t-132 -23.5h-153v332h-78v31l78 2v294h152z" />
    <glyph glyph-name="Egrave" unicode="&#xc8;" horiz-adv-x="507" 
d="M94 659h360v-40h-314v-249h264v-40h-264v-290h324v-40h-370v659zM165 815h58l92 -106h-40z" />
    <glyph glyph-name="Eacute" unicode="&#xc9;" horiz-adv-x="507" 
d="M94 659h360v-40h-314v-249h264v-40h-264v-290h324v-40h-370v659zM281 709h-40l92 106h58z" />
    <glyph glyph-name="Ecircumflex" unicode="&#xca;" horiz-adv-x="507" 
d="M94 659h360v-40h-314v-249h264v-40h-264v-290h324v-40h-370v659zM161 709l96 106h42l96 -106h-40l-75 72h-4l-75 -72h-40z" />
    <glyph glyph-name="Ecaron" unicode="&#x11a;" horiz-adv-x="507" 
d="M94 659h360v-40h-314v-249h264v-40h-264v-290h324v-40h-370v659zM395 815l-96 -106h-42l-96 106h40l75 -72h4l75 72h40z" />
    <glyph glyph-name="Edieresis" unicode="&#xcb;" horiz-adv-x="507" 
d="M94 659h360v-40h-314v-249h264v-40h-264v-290h324v-40h-370v659zM199 725q-16 0 -26 9.5t-10 26.5t10 27t26 10t26.5 -10t10.5 -27t-10.5 -26.5t-26.5 -9.5zM357 725q-16 0 -26.5 9.5t-10.5 26.5t10.5 27t26.5 10t26 -10t10 -27t-10 -26.5t-26 -9.5z" />
    <glyph glyph-name="Emacron" unicode="&#x112;" horiz-adv-x="507" 
d="M94 659h360v-40h-314v-249h264v-40h-264v-290h324v-40h-370v659zM164 770h228v-36h-228v36z" />
    <glyph glyph-name="Ebreve" unicode="&#x114;" horiz-adv-x="507" 
d="M94 659h360v-40h-314v-249h264v-40h-264v-290h324v-40h-370v659zM278 711q-29 0 -49.5 10t-34.5 25t-21.5 33.5t-9.5 35.5h33q4 -26 23.5 -49t58.5 -23q19 0 33.5 6.5t24.5 16.5t16 23t8 26h33q-2 -17 -9.5 -35.5t-21.5 -33.5t-35 -25t-49 -10z" />
    <glyph glyph-name="Edotaccent" unicode="&#x116;" horiz-adv-x="507" 
d="M94 659h360v-40h-314v-249h264v-40h-264v-290h324v-40h-370v659zM278 721q-17 0 -28.5 11t-11.5 30q0 17 11.5 28t28.5 11t28.5 -11t11.5 -28q0 -19 -11.5 -30t-28.5 -11z" />
    <glyph glyph-name="uni1EB8" unicode="&#x1eb8;" horiz-adv-x="507" 
d="M94 659h360v-40h-314v-249h264v-40h-264v-290h324v-40h-370v659zM292 -194q-17 0 -27.5 11t-10.5 30q0 17 10.5 28t27.5 11t27.5 -11t10.5 -28q0 -19 -10.5 -30t-27.5 -11z" />
    <glyph glyph-name="uni1EBA" unicode="&#x1eba;" horiz-adv-x="507" 
d="M94 659h360v-40h-314v-249h264v-40h-264v-290h324v-40h-370v659zM246 729q27 8 45 20.5t18 33.5q0 45 -85 48l4 32q25 -1 47 -5.5t38.5 -13.5t26 -22.5t9.5 -32.5q0 -20 -8 -34t-21.5 -24t-30.5 -17t-35 -12z" />
    <glyph glyph-name="uni1EBC" unicode="&#x1ebc;" horiz-adv-x="507" 
d="M94 659h360v-40h-314v-249h264v-40h-264v-290h324v-40h-370v659zM337 716q-20 0 -35.5 9t-29 19.5t-26.5 19.5t-28 9q-16 0 -27 -15.5t-14 -41.5h-29q1 17 6 33.5t14 29.5t21.5 21t29.5 8q20 0 35 -9t28.5 -19.5t27 -19t28.5 -8.5q16 0 27 15t14 41h29q-1 -17 -6 -33
t-14 -29.5t-21.5 -21.5t-29.5 -8z" />
    <glyph glyph-name="uni1EBE" unicode="&#x1ebe;" horiz-adv-x="507" 
d="M94 659h360v-40h-314v-249h264v-40h-264v-290h324v-40h-370v659zM428 876h48l-86 -106h-33zM258 809h40l91 -100h-39l-70 66h-4l-70 -66h-39z" />
    <glyph glyph-name="uni1EC0" unicode="&#x1ec0;" horiz-adv-x="507" 
d="M94 659h360v-40h-314v-249h264v-40h-264v-290h324v-40h-370v659zM430 770h-33l-86 106h47zM258 809h40l91 -100h-39l-70 66h-4l-70 -66h-39z" />
    <glyph glyph-name="uni1EC2" unicode="&#x1ec2;" horiz-adv-x="507" 
d="M94 659h360v-40h-314v-249h264v-40h-264v-290h324v-40h-370v659zM370 784q21 5 36 15t15 27q0 23 -18.5 31.5t-54.5 10.5l5 31q45 -2 75.5 -17.5t30.5 -50.5q0 -17 -7 -29.5t-18.5 -21.5t-25.5 -14.5t-28 -8.5zM258 809h40l91 -100h-39l-70 66h-4l-70 -66h-39z" />
    <glyph glyph-name="uni1EC4" unicode="&#x1ec4;" horiz-adv-x="507" 
d="M94 659h360v-40h-314v-249h264v-40h-264v-290h324v-40h-370v659zM258 809h40l91 -100h-39l-70 66h-4l-70 -66h-39zM156 843q1 14 5.5 28.5t13.5 26t21.5 19t30.5 7.5t31.5 -7.5t25 -17t22 -17t23.5 -7.5q17 0 28 13t14 36h29q-1 -14 -5.5 -28.5t-13.5 -26t-21.5 -19
t-30.5 -7.5t-31.5 7.5t-25 17t-22 17t-23.5 7.5q-17 0 -28 -13t-14 -36h-29z" />
    <glyph glyph-name="uni1EC6" unicode="&#x1ec6;" horiz-adv-x="507" 
d="M94 659h360v-40h-314v-249h264v-40h-264v-290h324v-40h-370v659zM161 709l96 106h42l96 -106h-40l-75 72h-4l-75 -72h-40zM292 -194q-17 0 -27.5 11t-10.5 30q0 17 10.5 28t27.5 11t27.5 -11t10.5 -28q0 -19 -10.5 -30t-27.5 -11z" />
    <glyph glyph-name="Eogonek" unicode="&#x118;" horiz-adv-x="507" 
d="M94 659h360v-40h-314v-249h264v-40h-264v-290h324v-40h-2q-17 -3 -34 -13.5t-30.5 -26t-22 -35t-8.5 -41.5q0 -26 15.5 -39t35.5 -13q23 0 43 14l16 -27q-11 -10 -29.5 -17t-35.5 -7q-35 0 -59.5 20t-24.5 62q0 39 21.5 71.5t50.5 51.5h-306v659z" />
    <glyph glyph-name="Gcircumflex" unicode="&#x11c;" horiz-adv-x="597" 
d="M51 331q0 78 21 141t59.5 107.5t92.5 68t119 23.5q33 0 60.5 -7t49.5 -18.5t39 -25.5t30 -28l-27 -30q-26 28 -62 47.5t-90 19.5q-57 0 -102 -21t-76.5 -59.5t-48.5 -93.5t-17 -124t16 -124.5t47 -94.5t75.5 -60.5t100.5 -21.5q45 0 84 13t63 37v205h-157v39h201v-261
q-31 -33 -80.5 -54t-114.5 -21q-63 0 -115.5 24t-89.5 68.5t-57.5 108t-20.5 142.5zM225 709l96 106h42l96 -106h-40l-75 72h-4l-75 -72h-40z" />
    <glyph glyph-name="Gbreve" unicode="&#x11e;" horiz-adv-x="597" 
d="M51 331q0 78 21 141t59.5 107.5t92.5 68t119 23.5q33 0 60.5 -7t49.5 -18.5t39 -25.5t30 -28l-27 -30q-26 28 -62 47.5t-90 19.5q-57 0 -102 -21t-76.5 -59.5t-48.5 -93.5t-17 -124t16 -124.5t47 -94.5t75.5 -60.5t100.5 -21.5q45 0 84 13t63 37v205h-157v39h201v-261
q-31 -33 -80.5 -54t-114.5 -21q-63 0 -115.5 24t-89.5 68.5t-57.5 108t-20.5 142.5zM342 711q-29 0 -49.5 10t-34.5 25t-21.5 33.5t-9.5 35.5h33q4 -26 23.5 -49t58.5 -23q19 0 33.5 6.5t24.5 16.5t16 23t8 26h33q-2 -17 -9.5 -35.5t-21.5 -33.5t-35 -25t-49 -10z" />
    <glyph glyph-name="Gdotaccent" unicode="&#x120;" horiz-adv-x="597" 
d="M51 331q0 78 21 141t59.5 107.5t92.5 68t119 23.5q33 0 60.5 -7t49.5 -18.5t39 -25.5t30 -28l-27 -30q-26 28 -62 47.5t-90 19.5q-57 0 -102 -21t-76.5 -59.5t-48.5 -93.5t-17 -124t16 -124.5t47 -94.5t75.5 -60.5t100.5 -21.5q45 0 84 13t63 37v205h-157v39h201v-261
q-31 -33 -80.5 -54t-114.5 -21q-63 0 -115.5 24t-89.5 68.5t-57.5 108t-20.5 142.5zM342 721q-17 0 -28.5 11t-11.5 30q0 17 11.5 28t28.5 11t28.5 -11t11.5 -28q0 -19 -11.5 -30t-28.5 -11z" />
    <glyph glyph-name="uni0122" unicode="&#x122;" horiz-adv-x="597" 
d="M51 331q0 78 21 141t59.5 107.5t92.5 68t119 23.5q33 0 60.5 -7t49.5 -18.5t39 -25.5t30 -28l-27 -30q-26 28 -62 47.5t-90 19.5q-57 0 -102 -21t-76.5 -59.5t-48.5 -93.5t-17 -124t16 -124.5t47 -94.5t75.5 -60.5t100.5 -21.5q45 0 84 13t63 37v205h-157v39h201v-261
q-31 -33 -80.5 -54t-114.5 -21q-63 0 -115.5 24t-89.5 68.5t-57.5 108t-20.5 142.5zM311 -51q41 -8 62 -25t21 -48q0 -20 -10.5 -34.5t-28 -24.5t-40 -16.5t-46.5 -9.5l-7 30q42 6 67.5 18t25.5 32q0 23 -17.5 33.5t-39.5 15.5l13 29v0z" />
    <glyph glyph-name="Gcaron" unicode="&#x1e6;" horiz-adv-x="597" 
d="M51 331q0 78 21 141t59.5 107.5t92.5 68t119 23.5q33 0 60.5 -7t49.5 -18.5t39 -25.5t30 -28l-27 -30q-26 28 -62 47.5t-90 19.5q-57 0 -102 -21t-76.5 -59.5t-48.5 -93.5t-17 -124t16 -124.5t47 -94.5t75.5 -60.5t100.5 -21.5q45 0 84 13t63 37v205h-157v39h201v-261
q-31 -33 -80.5 -54t-114.5 -21q-63 0 -115.5 24t-89.5 68.5t-57.5 108t-20.5 142.5zM459 815l-96 -106h-42l-96 106h40l75 -72h4l75 72h40z" />
    <glyph glyph-name="uni1E20" unicode="&#x1e20;" horiz-adv-x="597" 
d="M51 331q0 78 21 141t59.5 107.5t92.5 68t119 23.5q33 0 60.5 -7t49.5 -18.5t39 -25.5t30 -28l-27 -30q-26 28 -62 47.5t-90 19.5q-57 0 -102 -21t-76.5 -59.5t-48.5 -93.5t-17 -124t16 -124.5t47 -94.5t75.5 -60.5t100.5 -21.5q45 0 84 13t63 37v205h-157v39h201v-261
q-31 -33 -80.5 -54t-114.5 -21q-63 0 -115.5 24t-89.5 68.5t-57.5 108t-20.5 142.5zM228 770h228v-36h-228v36z" />
    <glyph glyph-name="uni00470303" horiz-adv-x="597" 
d="M51 331q0 78 21 141t59.5 107.5t92.5 68t119 23.5q33 0 60.5 -7t49.5 -18.5t39 -25.5t30 -28l-27 -30q-26 28 -62 47.5t-90 19.5q-57 0 -102 -21t-76.5 -59.5t-48.5 -93.5t-17 -124t16 -124.5t47 -94.5t75.5 -60.5t100.5 -21.5q45 0 84 13t63 37v205h-157v39h201v-261
q-31 -33 -80.5 -54t-114.5 -21q-63 0 -115.5 24t-89.5 68.5t-57.5 108t-20.5 142.5zM401 716q-20 0 -35.5 9t-29 19.5t-26.5 19.5t-28 9q-16 0 -27 -15.5t-14 -41.5h-29q1 17 6 33.5t14 29.5t21.5 21t29.5 8q20 0 35 -9t28.5 -19.5t27 -19t28.5 -8.5q16 0 27 15t14 41h29
q-1 -17 -6 -33t-14 -29.5t-21.5 -21.5t-29.5 -8z" />
    <glyph glyph-name="Hcircumflex" unicode="&#x124;" horiz-adv-x="632" 
d="M94 659h46v-289h352v289h46v-659h-46v330h-352v-330h-46v659zM199 709l96 106h42l96 -106h-40l-75 72h-4l-75 -72h-40z" />
    <glyph glyph-name="uni1E24" unicode="&#x1e24;" horiz-adv-x="632" 
d="M94 659h46v-289h352v289h46v-659h-46v330h-352v-330h-46v659zM316 -194q-17 0 -27.5 11t-10.5 30q0 17 10.5 28t27.5 11t27.5 -11t10.5 -28q0 -19 -10.5 -30t-27.5 -11z" />
    <glyph glyph-name="uni1E2A" unicode="&#x1e2a;" horiz-adv-x="632" 
d="M94 659h46v-289h352v289h46v-659h-46v330h-352v-330h-46v659zM316 -203q-31 0 -52.5 11.5t-35.5 29t-21.5 38.5t-9.5 40h33q2 -16 8.5 -31.5t17 -27.5t25.5 -19.5t35 -7.5t35 7.5t25.5 19.5t17 27.5t8.5 31.5h33q-2 -19 -9.5 -40t-21.5 -38.5t-35.5 -29t-52.5 -11.5z" />
    <glyph glyph-name="Hbar" unicode="&#x126;" horiz-adv-x="664" 
d="M508 495h-352v-125h352v125zM632 495h-78v-495h-46v330h-352v-330h-46v495h-77v29l77 4v131h46v-131h352v131h46v-131h78v-33z" />
    <glyph glyph-name="Igrave" unicode="&#xcc;" horiz-adv-x="233" 
d="M94 659h46v-659h-46v659zM3 815h58l92 -106h-40z" />
    <glyph glyph-name="Iacute" unicode="&#xcd;" horiz-adv-x="233" 
d="M94 659h46v-659h-46v659zM119 709h-40l92 106h58z" />
    <glyph glyph-name="Icircumflex" unicode="&#xce;" horiz-adv-x="233" 
d="M94 659h46v-659h-46v659zM-1 709l96 106h42l96 -106h-40l-75 72h-4l-75 -72h-40z" />
    <glyph glyph-name="Itilde" unicode="&#x128;" horiz-adv-x="233" 
d="M94 659h46v-659h-46v659zM175 716q-20 0 -35.5 9t-29 19.5t-26.5 19.5t-28 9q-16 0 -27 -15.5t-14 -41.5h-29q1 17 6 33.5t14 29.5t21.5 21t29.5 8q20 0 35 -9t28.5 -19.5t27 -19t28.5 -8.5q16 0 27 15t14 41h29q-1 -17 -6 -33t-14 -29.5t-21.5 -21.5t-29.5 -8z" />
    <glyph glyph-name="Idieresis" unicode="&#xcf;" horiz-adv-x="233" 
d="M94 659h46v-659h-46v659zM37 725q-16 0 -26 9.5t-10 26.5t10 27t26 10t26.5 -10t10.5 -27t-10.5 -26.5t-26.5 -9.5zM195 725q-16 0 -26.5 9.5t-10.5 26.5t10.5 27t26.5 10t26 -10t10 -27t-10 -26.5t-26 -9.5z" />
    <glyph glyph-name="Imacron" unicode="&#x12a;" horiz-adv-x="233" 
d="M94 659h46v-659h-46v659zM2 770h228v-36h-228v36z" />
    <glyph glyph-name="Idotaccent" unicode="&#x130;" horiz-adv-x="233" 
d="M94 659h46v-659h-46v659zM116 721q-17 0 -28.5 11t-11.5 30q0 17 11.5 28t28.5 11t28.5 -11t11.5 -28q0 -19 -11.5 -30t-28.5 -11z" />
    <glyph glyph-name="uni01CF" unicode="&#x1cf;" horiz-adv-x="233" 
d="M94 659h46v-659h-46v659zM233 815l-96 -106h-42l-96 106h40l75 -72h4l75 72h40z" />
    <glyph glyph-name="uni1EC8" unicode="&#x1ec8;" horiz-adv-x="233" 
d="M94 659h46v-659h-46v659zM84 729q27 8 45 20.5t18 33.5q0 45 -85 48l4 32q25 -1 47 -5.5t38.5 -13.5t26 -22.5t9.5 -32.5q0 -20 -8 -34t-21.5 -24t-30.5 -17t-35 -12z" />
    <glyph glyph-name="uni1ECA" unicode="&#x1eca;" horiz-adv-x="233" 
d="M94 659h46v-659h-46v659zM117 -194q-17 0 -27.5 11t-10.5 30q0 17 10.5 28t27.5 11t27.5 -11t10.5 -28q0 -19 -10.5 -30t-27.5 -11z" />
    <glyph glyph-name="Iogonek" unicode="&#x12e;" horiz-adv-x="233" 
d="M94 659h46v-659q-26 -29 -43 -56t-17 -60q0 -26 15.5 -39t34.5 -13q25 0 43 14l17 -27q-12 -10 -30.5 -17t-35.5 -7q-35 0 -59.5 20t-24.5 62q0 41 18.5 69t43.5 54h-8v659z" />
    <glyph glyph-name="Jcircumflex" unicode="&#x134;" horiz-adv-x="455" 
d="M72 108q25 -42 55 -60t72 -18q60 0 89.5 36.5t29.5 117.5v475h46v-480q0 -40 -9 -74.5t-28.5 -60.5t-50.5 -41t-76 -15q-56 0 -96.5 25t-66.5 72zM219 709l96 106h42l96 -106h-40l-75 72h-4l-75 -72h-40z" />
    <glyph glyph-name="uni0136" unicode="&#x136;" horiz-adv-x="551" 
d="M94 659h46v-366h2l319 366h54l-210 -244l239 -415h-53l-217 380l-134 -153v-227h-46v659zM293 -51q41 -8 62 -25t21 -48q0 -20 -10.5 -34.5t-28 -24.5t-40 -16.5t-46.5 -9.5l-7 30q42 6 67.5 18t25.5 32q0 23 -17.5 33.5t-39.5 15.5l13 29v0z" />
    <glyph glyph-name="Lacute" unicode="&#x139;" horiz-adv-x="460" 
d="M94 659h46v-619h303v-40h-349v659zM122 709h-40l92 106h58z" />
    <glyph glyph-name="Lcaron" unicode="&#x13d;" horiz-adv-x="460" 
d="M94 659h46v-619h303v-40h-349v659zM318 518l-3 206h38v-50l-8 -156h-27z" />
    <glyph glyph-name="uni013B" unicode="&#x13b;" horiz-adv-x="460" 
d="M94 659h46v-619h303v-40h-349v659zM258 -51q41 -8 62 -25t21 -48q0 -20 -10.5 -34.5t-28 -24.5t-40 -16.5t-46.5 -9.5l-7 30q42 6 67.5 18t25.5 32q0 23 -17.5 33.5t-39.5 15.5l13 29v0z" />
    <glyph glyph-name="Ldot" unicode="&#x13f;" horiz-adv-x="460" 
d="M94 659h46v-619h303v-40h-349v659zM311 323q0 22 13 34t30 12t29.5 -12t12.5 -34q0 -21 -12.5 -33t-29.5 -12t-30 12t-13 33z" />
    <glyph glyph-name="uni1E36" unicode="&#x1e36;" horiz-adv-x="460" 
d="M94 659h46v-619h303v-40h-349v659zM283 -194q-17 0 -27.5 11t-10.5 30q0 17 10.5 28t27.5 11t27.5 -11t10.5 -28q0 -19 -10.5 -30t-27.5 -11z" />
    <glyph glyph-name="uni1E38" unicode="&#x1e38;" horiz-adv-x="460" 
d="M94 659h46v-619h303v-40h-349v659zM5 770h228v-36h-228v36zM283 -194q-17 0 -27.5 11t-10.5 30q0 17 10.5 28t27.5 11t27.5 -11t10.5 -28q0 -19 -10.5 -30t-27.5 -11z" />
    <glyph glyph-name="uni1E3A" unicode="&#x1e3a;" horiz-adv-x="460" 
d="M94 659h46v-619h303v-40h-349v659zM396 -160h-228v36h228v-36z" />
    <glyph glyph-name="Lslash" unicode="&#x141;" horiz-adv-x="461" 
d="M444 40v-40h-350v253l-84 -43v40l84 43v366h46v-343l197 103v-40l-197 -103v-236h304z" />
    <glyph glyph-name="uni1E42" unicode="&#x1e42;" horiz-adv-x="699" 
d="M94 659h64l138 -387l52 -146h4l51 146l137 387h65v-659h-45v433q0 41 2 88.5t4 89.5h-4l-51 -145l-142 -394h-40l-142 394l-52 145h-4q2 -42 3.5 -89.5t1.5 -88.5v-433h-42v659zM350 -194q-17 0 -27.5 11t-10.5 30q0 17 10.5 28t27.5 11t27.5 -11t10.5 -28
q0 -19 -10.5 -30t-27.5 -11z" />
    <glyph glyph-name="Nacute" unicode="&#x143;" horiz-adv-x="629" 
d="M94 659h48l277 -465l75 -131h4l-4 96t-2 96v404h43v-659h-48l-277 465l-75 131h-4l4 -93.5t2 -93.5v-409h-43v659zM322 709h-40l92 106h58z" />
    <glyph glyph-name="Ncaron" unicode="&#x147;" horiz-adv-x="629" 
d="M94 659h48l277 -465l75 -131h4l-4 96t-2 96v404h43v-659h-48l-277 465l-75 131h-4l4 -93.5t2 -93.5v-409h-43v659zM436 815l-96 -106h-42l-96 106h40l75 -72h4l75 72h40z" />
    <glyph glyph-name="Ntilde" unicode="&#xd1;" horiz-adv-x="629" 
d="M94 659h48l277 -465l75 -131h4l-4 96t-2 96v404h43v-659h-48l-277 465l-75 131h-4l4 -93.5t2 -93.5v-409h-43v659zM378 716q-20 0 -35.5 9t-29 19.5t-26.5 19.5t-28 9q-16 0 -27 -15.5t-14 -41.5h-29q1 17 6 33.5t14 29.5t21.5 21t29.5 8q20 0 35 -9t28.5 -19.5t27 -19
t28.5 -8.5q16 0 27 15t14 41h29q-1 -17 -6 -33t-14 -29.5t-21.5 -21.5t-29.5 -8z" />
    <glyph glyph-name="uni0145" unicode="&#x145;" horiz-adv-x="629" 
d="M94 659h48l277 -465l75 -131h4l-4 96t-2 96v404h43v-659h-48l-277 465l-75 131h-4l4 -93.5t2 -93.5v-409h-43v659zM290 -51q41 -8 62 -25t21 -48q0 -20 -10.5 -34.5t-28 -24.5t-40 -16.5t-46.5 -9.5l-7 30q42 6 67.5 18t25.5 32q0 23 -17.5 33.5t-39.5 15.5l13 29v0z" />
    <glyph glyph-name="uni1E44" unicode="&#x1e44;" horiz-adv-x="629" 
d="M94 659h48l277 -465l75 -131h4l-4 96t-2 96v404h43v-659h-48l-277 465l-75 131h-4l4 -93.5t2 -93.5v-409h-43v659zM319 721q-17 0 -28.5 11t-11.5 30q0 17 11.5 28t28.5 11t28.5 -11t11.5 -28q0 -19 -11.5 -30t-28.5 -11z" />
    <glyph glyph-name="uni1E46" unicode="&#x1e46;" horiz-adv-x="629" 
d="M94 659h48l277 -465l75 -131h4l-4 96t-2 96v404h43v-659h-48l-277 465l-75 131h-4l4 -93.5t2 -93.5v-409h-43v659zM315 -194q-17 0 -27.5 11t-10.5 30q0 17 10.5 28t27.5 11t27.5 -11t10.5 -28q0 -19 -10.5 -30t-27.5 -11z" />
    <glyph glyph-name="uni1E48" unicode="&#x1e48;" horiz-adv-x="629" 
d="M94 659h48l277 -465l75 -131h4l-4 96t-2 96v404h43v-659h-48l-277 465l-75 131h-4l4 -93.5t2 -93.5v-409h-43v659zM428 -160h-228v36h228v-36z" />
    <glyph glyph-name="Ograve" unicode="&#xd2;" horiz-adv-x="645" 
d="M323 -12q-60 0 -110 24.5t-86 69.5t-56 108.5t-20 141.5t20 140.5t56 107t86 68t110 23.5q59 0 109 -23.5t86 -68t56 -107t20 -140.5t-20 -141.5t-56 -108.5t-86 -69.5t-109 -24.5zM323 30q50 0 91 21.5t70.5 61t45.5 95t16 124.5q0 68 -16 123t-45.5 93.5t-70.5 59.5
t-91 21t-91.5 -21t-71 -59.5t-45.5 -93.5t-16 -123q0 -69 16 -124.5t45.5 -95t71 -61t91.5 -21.5zM209 815h58l92 -106h-40z" />
    <glyph glyph-name="Oacute" unicode="&#xd3;" horiz-adv-x="645" 
d="M323 -12q-60 0 -110 24.5t-86 69.5t-56 108.5t-20 141.5t20 140.5t56 107t86 68t110 23.5q59 0 109 -23.5t86 -68t56 -107t20 -140.5t-20 -141.5t-56 -108.5t-86 -69.5t-109 -24.5zM323 30q50 0 91 21.5t70.5 61t45.5 95t16 124.5q0 68 -16 123t-45.5 93.5t-70.5 59.5
t-91 21t-91.5 -21t-71 -59.5t-45.5 -93.5t-16 -123q0 -69 16 -124.5t45.5 -95t71 -61t91.5 -21.5zM325 709h-40l92 106h58z" />
    <glyph glyph-name="Ocircumflex" unicode="&#xd4;" horiz-adv-x="645" 
d="M323 -12q-60 0 -110 24.5t-86 69.5t-56 108.5t-20 141.5t20 140.5t56 107t86 68t110 23.5q59 0 109 -23.5t86 -68t56 -107t20 -140.5t-20 -141.5t-56 -108.5t-86 -69.5t-109 -24.5zM323 30q50 0 91 21.5t70.5 61t45.5 95t16 124.5q0 68 -16 123t-45.5 93.5t-70.5 59.5
t-91 21t-91.5 -21t-71 -59.5t-45.5 -93.5t-16 -123q0 -69 16 -124.5t45.5 -95t71 -61t91.5 -21.5zM205 709l96 106h42l96 -106h-40l-75 72h-4l-75 -72h-40z" />
    <glyph glyph-name="Otilde" unicode="&#xd5;" horiz-adv-x="645" 
d="M323 -12q-60 0 -110 24.5t-86 69.5t-56 108.5t-20 141.5t20 140.5t56 107t86 68t110 23.5q59 0 109 -23.5t86 -68t56 -107t20 -140.5t-20 -141.5t-56 -108.5t-86 -69.5t-109 -24.5zM323 30q50 0 91 21.5t70.5 61t45.5 95t16 124.5q0 68 -16 123t-45.5 93.5t-70.5 59.5
t-91 21t-91.5 -21t-71 -59.5t-45.5 -93.5t-16 -123q0 -69 16 -124.5t45.5 -95t71 -61t91.5 -21.5zM381 716q-20 0 -35.5 9t-29 19.5t-26.5 19.5t-28 9q-16 0 -27 -15.5t-14 -41.5h-29q1 17 6 33.5t14 29.5t21.5 21t29.5 8q20 0 35 -9t28.5 -19.5t27 -19t28.5 -8.5
q16 0 27 15t14 41h29q-1 -17 -6 -33t-14 -29.5t-21.5 -21.5t-29.5 -8z" />
    <glyph glyph-name="Odieresis" unicode="&#xd6;" horiz-adv-x="645" 
d="M323 -12q-60 0 -110 24.5t-86 69.5t-56 108.5t-20 141.5t20 140.5t56 107t86 68t110 23.5q59 0 109 -23.5t86 -68t56 -107t20 -140.5t-20 -141.5t-56 -108.5t-86 -69.5t-109 -24.5zM323 30q50 0 91 21.5t70.5 61t45.5 95t16 124.5q0 68 -16 123t-45.5 93.5t-70.5 59.5
t-91 21t-91.5 -21t-71 -59.5t-45.5 -93.5t-16 -123q0 -69 16 -124.5t45.5 -95t71 -61t91.5 -21.5zM243 725q-16 0 -26 9.5t-10 26.5t10 27t26 10t26.5 -10t10.5 -27t-10.5 -26.5t-26.5 -9.5zM401 725q-16 0 -26.5 9.5t-10.5 26.5t10.5 27t26.5 10t26 -10t10 -27t-10 -26.5
t-26 -9.5z" />
    <glyph glyph-name="Omacron" unicode="&#x14c;" horiz-adv-x="645" 
d="M323 -12q-60 0 -110 24.5t-86 69.5t-56 108.5t-20 141.5t20 140.5t56 107t86 68t110 23.5q59 0 109 -23.5t86 -68t56 -107t20 -140.5t-20 -141.5t-56 -108.5t-86 -69.5t-109 -24.5zM323 30q50 0 91 21.5t70.5 61t45.5 95t16 124.5q0 68 -16 123t-45.5 93.5t-70.5 59.5
t-91 21t-91.5 -21t-71 -59.5t-45.5 -93.5t-16 -123q0 -69 16 -124.5t45.5 -95t71 -61t91.5 -21.5zM208 770h228v-36h-228v36z" />
    <glyph glyph-name="Ohungarumlaut" unicode="&#x150;" horiz-adv-x="645" 
d="M323 -12q-60 0 -110 24.5t-86 69.5t-56 108.5t-20 141.5t20 140.5t56 107t86 68t110 23.5q59 0 109 -23.5t86 -68t56 -107t20 -140.5t-20 -141.5t-56 -108.5t-86 -69.5t-109 -24.5zM323 30q50 0 91 21.5t70.5 61t45.5 95t16 124.5q0 68 -16 123t-45.5 93.5t-70.5 59.5
t-91 21t-91.5 -21t-71 -59.5t-45.5 -93.5t-16 -123q0 -69 16 -124.5t45.5 -95t71 -61t91.5 -21.5zM230 709l67 106h49l-80 -106h-36zM442 815h49l-80 -106h-36z" />
    <glyph glyph-name="uni01D1" unicode="&#x1d1;" horiz-adv-x="645" 
d="M323 -12q-60 0 -110 24.5t-86 69.5t-56 108.5t-20 141.5t20 140.5t56 107t86 68t110 23.5q59 0 109 -23.5t86 -68t56 -107t20 -140.5t-20 -141.5t-56 -108.5t-86 -69.5t-109 -24.5zM323 30q50 0 91 21.5t70.5 61t45.5 95t16 124.5q0 68 -16 123t-45.5 93.5t-70.5 59.5
t-91 21t-91.5 -21t-71 -59.5t-45.5 -93.5t-16 -123q0 -69 16 -124.5t45.5 -95t71 -61t91.5 -21.5zM439 815l-96 -106h-42l-96 106h40l75 -72h4l75 72h40z" />
    <glyph glyph-name="uni1ECC" unicode="&#x1ecc;" horiz-adv-x="645" 
d="M323 -12q-60 0 -110 24.5t-86 69.5t-56 108.5t-20 141.5t20 140.5t56 107t86 68t110 23.5q59 0 109 -23.5t86 -68t56 -107t20 -140.5t-20 -141.5t-56 -108.5t-86 -69.5t-109 -24.5zM323 30q50 0 91 21.5t70.5 61t45.5 95t16 124.5q0 68 -16 123t-45.5 93.5t-70.5 59.5
t-91 21t-91.5 -21t-71 -59.5t-45.5 -93.5t-16 -123q0 -69 16 -124.5t45.5 -95t71 -61t91.5 -21.5zM322 -194q-17 0 -27.5 11t-10.5 30q0 17 10.5 28t27.5 11t27.5 -11t10.5 -28q0 -19 -10.5 -30t-27.5 -11z" />
    <glyph glyph-name="uni1ECE" unicode="&#x1ece;" horiz-adv-x="645" 
d="M323 -12q-60 0 -110 24.5t-86 69.5t-56 108.5t-20 141.5t20 140.5t56 107t86 68t110 23.5q59 0 109 -23.5t86 -68t56 -107t20 -140.5t-20 -141.5t-56 -108.5t-86 -69.5t-109 -24.5zM323 30q50 0 91 21.5t70.5 61t45.5 95t16 124.5q0 68 -16 123t-45.5 93.5t-70.5 59.5
t-91 21t-91.5 -21t-71 -59.5t-45.5 -93.5t-16 -123q0 -69 16 -124.5t45.5 -95t71 -61t91.5 -21.5zM290 729q27 8 45 20.5t18 33.5q0 45 -85 48l4 32q25 -1 47 -5.5t38.5 -13.5t26 -22.5t9.5 -32.5q0 -20 -8 -34t-21.5 -24t-30.5 -17t-35 -12z" />
    <glyph glyph-name="uni1ED0" unicode="&#x1ed0;" horiz-adv-x="645" 
d="M323 -12q-60 0 -110 24.5t-86 69.5t-56 108.5t-20 141.5t20 140.5t56 107t86 68t110 23.5q59 0 109 -23.5t86 -68t56 -107t20 -140.5t-20 -141.5t-56 -108.5t-86 -69.5t-109 -24.5zM323 30q50 0 91 21.5t70.5 61t45.5 95t16 124.5q0 68 -16 123t-45.5 93.5t-70.5 59.5
t-91 21t-91.5 -21t-71 -59.5t-45.5 -93.5t-16 -123q0 -69 16 -124.5t45.5 -95t71 -61t91.5 -21.5zM472 876h48l-86 -106h-33zM302 809h40l91 -100h-39l-70 66h-4l-70 -66h-39z" />
    <glyph glyph-name="uni1ED2" unicode="&#x1ed2;" horiz-adv-x="645" 
d="M323 -12q-60 0 -110 24.5t-86 69.5t-56 108.5t-20 141.5t20 140.5t56 107t86 68t110 23.5q59 0 109 -23.5t86 -68t56 -107t20 -140.5t-20 -141.5t-56 -108.5t-86 -69.5t-109 -24.5zM323 30q50 0 91 21.5t70.5 61t45.5 95t16 124.5q0 68 -16 123t-45.5 93.5t-70.5 59.5
t-91 21t-91.5 -21t-71 -59.5t-45.5 -93.5t-16 -123q0 -69 16 -124.5t45.5 -95t71 -61t91.5 -21.5zM474 770h-33l-86 106h47zM302 809h40l91 -100h-39l-70 66h-4l-70 -66h-39z" />
    <glyph glyph-name="uni1ED4" unicode="&#x1ed4;" horiz-adv-x="645" 
d="M323 -12q-60 0 -110 24.5t-86 69.5t-56 108.5t-20 141.5t20 140.5t56 107t86 68t110 23.5q59 0 109 -23.5t86 -68t56 -107t20 -140.5t-20 -141.5t-56 -108.5t-86 -69.5t-109 -24.5zM323 30q50 0 91 21.5t70.5 61t45.5 95t16 124.5q0 68 -16 123t-45.5 93.5t-70.5 59.5
t-91 21t-91.5 -21t-71 -59.5t-45.5 -93.5t-16 -123q0 -69 16 -124.5t45.5 -95t71 -61t91.5 -21.5zM414 784q21 5 36 15t15 27q0 23 -18.5 31.5t-54.5 10.5l5 31q45 -2 75.5 -17.5t30.5 -50.5q0 -17 -7 -29.5t-18.5 -21.5t-25.5 -14.5t-28 -8.5zM302 809h40l91 -100h-39
l-70 66h-4l-70 -66h-39z" />
    <glyph glyph-name="uni1ED6" unicode="&#x1ed6;" horiz-adv-x="645" 
d="M323 -12q-60 0 -110 24.5t-86 69.5t-56 108.5t-20 141.5t20 140.5t56 107t86 68t110 23.5q59 0 109 -23.5t86 -68t56 -107t20 -140.5t-20 -141.5t-56 -108.5t-86 -69.5t-109 -24.5zM323 30q50 0 91 21.5t70.5 61t45.5 95t16 124.5q0 68 -16 123t-45.5 93.5t-70.5 59.5
t-91 21t-91.5 -21t-71 -59.5t-45.5 -93.5t-16 -123q0 -69 16 -124.5t45.5 -95t71 -61t91.5 -21.5zM302 809h40l91 -100h-39l-70 66h-4l-70 -66h-39zM200 843q1 14 5.5 28.5t13.5 26t21.5 19t30.5 7.5t31.5 -7.5t25 -17t22 -17t23.5 -7.5q17 0 28 13t14 36h29
q-1 -14 -5.5 -28.5t-13.5 -26t-21.5 -19t-30.5 -7.5t-31.5 7.5t-25 17t-22 17t-23.5 7.5q-17 0 -28 -13t-14 -36h-29z" />
    <glyph glyph-name="uni1ED8" unicode="&#x1ed8;" horiz-adv-x="645" 
d="M323 -12q-60 0 -110 24.5t-86 69.5t-56 108.5t-20 141.5t20 140.5t56 107t86 68t110 23.5q59 0 109 -23.5t86 -68t56 -107t20 -140.5t-20 -141.5t-56 -108.5t-86 -69.5t-109 -24.5zM323 30q50 0 91 21.5t70.5 61t45.5 95t16 124.5q0 68 -16 123t-45.5 93.5t-70.5 59.5
t-91 21t-91.5 -21t-71 -59.5t-45.5 -93.5t-16 -123q0 -69 16 -124.5t45.5 -95t71 -61t91.5 -21.5zM205 709l96 106h42l96 -106h-40l-75 72h-4l-75 -72h-40zM322 -194q-17 0 -27.5 11t-10.5 30q0 17 10.5 28t27.5 11t27.5 -11t10.5 -28q0 -19 -10.5 -30t-27.5 -11z" />
    <glyph glyph-name="Oslash" unicode="&#xd8;" horiz-adv-x="645" 
d="M172 99q29 -33 67 -51t84 -18q50 0 91 21.5t70.5 61t45.5 95t16 124.5q0 62 -13 112t-37 88zM473 562q-29 32 -67 49.5t-83 17.5q-50 0 -91.5 -21t-71 -59.5t-45.5 -93.5t-16 -123q0 -62 13 -113.5t37 -89.5zM524 571q33 -44 51.5 -104t18.5 -135q0 -78 -20 -141.5
t-56 -108.5t-86 -69.5t-109 -24.5q-107 0 -178 74l-64 -85l-29 22l68 92q-32 45 -50.5 105.5t-18.5 135.5q0 78 20 140.5t56 107t86 68t110 23.5q53 0 98 -18.5t80 -53.5l62 83l28 -22z" />
    <glyph glyph-name="OE" unicode="&#x152;" horiz-adv-x="826" 
d="M51 332q0 75 19.5 135t59 103t98 66t136.5 23h409v-40h-296v-249h245v-40h-245v-290h306v-40h-420q-78 0 -136.5 23.5t-97.5 67t-58.5 105t-19.5 136.5zM99 332q0 -65 16.5 -118.5t49.5 -92.5t84 -60.5t120 -21.5h62v581h-62q-69 0 -120 -21t-84 -58.5t-49.5 -91
t-16.5 -117.5z" />
    <glyph glyph-name="Ohorn" unicode="&#x1a0;" horiz-adv-x="645" 
d="M323 30q50 0 91 21.5t70.5 61t45.5 95t16 124.5q0 68 -16 123t-45.5 93.5t-70.5 59.5t-91 21t-91.5 -21t-71 -59.5t-45.5 -93.5t-16 -123q0 -69 16 -124.5t45.5 -95t71 -61t91.5 -21.5zM563 766q9 -14 14 -27t5 -28q0 -40 -26 -63t-72 -34q51 -43 80.5 -115t29.5 -167
q0 -78 -20 -141.5t-56 -108.5t-86 -69.5t-109 -24.5q-60 0 -110 24.5t-86 69.5t-56 108.5t-20 141.5t20 140.5t56 107t86 68t110 23.5q69 0 124 -32q95 13 95 69q0 17 -14 39z" />
    <glyph glyph-name="uni1EDA" unicode="&#x1eda;" horiz-adv-x="645" 
d="M323 30q50 0 91 21.5t70.5 61t45.5 95t16 124.5q0 68 -16 123t-45.5 93.5t-70.5 59.5t-91 21t-91.5 -21t-71 -59.5t-45.5 -93.5t-16 -123q0 -69 16 -124.5t45.5 -95t71 -61t91.5 -21.5zM563 766q9 -14 14 -27t5 -28q0 -40 -26 -63t-72 -34q51 -43 80.5 -115t29.5 -167
q0 -78 -20 -141.5t-56 -108.5t-86 -69.5t-109 -24.5q-60 0 -110 24.5t-86 69.5t-56 108.5t-20 141.5t20 140.5t56 107t86 68t110 23.5q69 0 124 -32q95 13 95 69q0 17 -14 39zM325 709h-40l92 106h58z" />
    <glyph glyph-name="uni1EDC" unicode="&#x1edc;" horiz-adv-x="645" 
d="M323 30q50 0 91 21.5t70.5 61t45.5 95t16 124.5q0 68 -16 123t-45.5 93.5t-70.5 59.5t-91 21t-91.5 -21t-71 -59.5t-45.5 -93.5t-16 -123q0 -69 16 -124.5t45.5 -95t71 -61t91.5 -21.5zM563 766q9 -14 14 -27t5 -28q0 -40 -26 -63t-72 -34q51 -43 80.5 -115t29.5 -167
q0 -78 -20 -141.5t-56 -108.5t-86 -69.5t-109 -24.5q-60 0 -110 24.5t-86 69.5t-56 108.5t-20 141.5t20 140.5t56 107t86 68t110 23.5q69 0 124 -32q95 13 95 69q0 17 -14 39zM209 815h58l92 -106h-40z" />
    <glyph glyph-name="uni1EDE" unicode="&#x1ede;" horiz-adv-x="645" 
d="M323 30q50 0 91 21.5t70.5 61t45.5 95t16 124.5q0 68 -16 123t-45.5 93.5t-70.5 59.5t-91 21t-91.5 -21t-71 -59.5t-45.5 -93.5t-16 -123q0 -69 16 -124.5t45.5 -95t71 -61t91.5 -21.5zM563 766q9 -14 14 -27t5 -28q0 -40 -26 -63t-72 -34q51 -43 80.5 -115t29.5 -167
q0 -78 -20 -141.5t-56 -108.5t-86 -69.5t-109 -24.5q-60 0 -110 24.5t-86 69.5t-56 108.5t-20 141.5t20 140.5t56 107t86 68t110 23.5q69 0 124 -32q95 13 95 69q0 17 -14 39zM290 729q27 8 45 20.5t18 33.5q0 45 -85 48l4 32q25 -1 47 -5.5t38.5 -13.5t26 -22.5t9.5 -32.5
q0 -20 -8 -34t-21.5 -24t-30.5 -17t-35 -12z" />
    <glyph glyph-name="uni1EE0" unicode="&#x1ee0;" horiz-adv-x="645" 
d="M323 30q50 0 91 21.5t70.5 61t45.5 95t16 124.5q0 68 -16 123t-45.5 93.5t-70.5 59.5t-91 21t-91.5 -21t-71 -59.5t-45.5 -93.5t-16 -123q0 -69 16 -124.5t45.5 -95t71 -61t91.5 -21.5zM563 766q9 -14 14 -27t5 -28q0 -40 -26 -63t-72 -34q51 -43 80.5 -115t29.5 -167
q0 -78 -20 -141.5t-56 -108.5t-86 -69.5t-109 -24.5q-60 0 -110 24.5t-86 69.5t-56 108.5t-20 141.5t20 140.5t56 107t86 68t110 23.5q69 0 124 -32q95 13 95 69q0 17 -14 39zM381 716q-20 0 -35.5 9t-29 19.5t-26.5 19.5t-28 9q-16 0 -27 -15.5t-14 -41.5h-29q1 17 6 33.5
t14 29.5t21.5 21t29.5 8q20 0 35 -9t28.5 -19.5t27 -19t28.5 -8.5q16 0 27 15t14 41h29q-1 -17 -6 -33t-14 -29.5t-21.5 -21.5t-29.5 -8z" />
    <glyph glyph-name="uni1EE2" unicode="&#x1ee2;" horiz-adv-x="645" 
d="M323 30q50 0 91 21.5t70.5 61t45.5 95t16 124.5q0 68 -16 123t-45.5 93.5t-70.5 59.5t-91 21t-91.5 -21t-71 -59.5t-45.5 -93.5t-16 -123q0 -69 16 -124.5t45.5 -95t71 -61t91.5 -21.5zM563 766q9 -14 14 -27t5 -28q0 -40 -26 -63t-72 -34q51 -43 80.5 -115t29.5 -167
q0 -78 -20 -141.5t-56 -108.5t-86 -69.5t-109 -24.5q-60 0 -110 24.5t-86 69.5t-56 108.5t-20 141.5t20 140.5t56 107t86 68t110 23.5q69 0 124 -32q95 13 95 69q0 17 -14 39zM322 -194q-17 0 -27.5 11t-10.5 30q0 17 10.5 28t27.5 11t27.5 -11t10.5 -28q0 -19 -10.5 -30
t-27.5 -11z" />
    <glyph glyph-name="uni01EA" unicode="&#x1ea;" horiz-adv-x="645" 
d="M270 -123q0 30 15.5 59t44.5 52q-64 0 -115.5 24.5t-88 69.5t-56 108.5t-19.5 141.5t20 140.5t56 107t86 68t110 23.5q59 0 109 -23.5t86 -68t56 -107t20 -140.5q0 -132 -52 -213.5t-151 -126.5q-43 -19 -62.5 -50t-19.5 -58q0 -26 15.5 -39t35.5 -13q23 0 43 14l16 -27
q-11 -10 -29.5 -17t-35.5 -7q-35 0 -59.5 20t-24.5 62zM323 30q50 0 91 21.5t70.5 61t45.5 95t16 124.5q0 68 -16 123t-45.5 93.5t-70.5 59.5t-91 21t-91.5 -21t-71 -59.5t-45.5 -93.5t-16 -123q0 -69 16 -124.5t45.5 -95t71 -61t91.5 -21.5z" />
    <glyph glyph-name="Racute" unicode="&#x154;" horiz-adv-x="553" 
d="M270 341q88 0 134.5 35.5t46.5 108.5q0 74 -46.5 104.5t-134.5 30.5h-130v-279h130zM458 0l-178 303h-140v-303h-46v659h188q49 0 89 -9.5t68.5 -30.5t44 -54t15.5 -80q0 -79 -45.5 -123.5t-123.5 -55.5l181 -306h-53zM284 709h-40l92 106h58z" />
    <glyph glyph-name="Rcaron" unicode="&#x158;" horiz-adv-x="553" 
d="M270 341q88 0 134.5 35.5t46.5 108.5q0 74 -46.5 104.5t-134.5 30.5h-130v-279h130zM458 0l-178 303h-140v-303h-46v659h188q49 0 89 -9.5t68.5 -30.5t44 -54t15.5 -80q0 -79 -45.5 -123.5t-123.5 -55.5l181 -306h-53zM398 815l-96 -106h-42l-96 106h40l75 -72h4l75 72
h40z" />
    <glyph glyph-name="uni0156" unicode="&#x156;" horiz-adv-x="553" 
d="M270 341q88 0 134.5 35.5t46.5 108.5q0 74 -46.5 104.5t-134.5 30.5h-130v-279h130zM458 0l-178 303h-140v-303h-46v659h188q49 0 89 -9.5t68.5 -30.5t44 -54t15.5 -80q0 -79 -45.5 -123.5t-123.5 -55.5l181 -306h-53zM270 -51q41 -8 62 -25t21 -48q0 -20 -10.5 -34.5
t-28 -24.5t-40 -16.5t-46.5 -9.5l-7 30q42 6 67.5 18t25.5 32q0 23 -17.5 33.5t-39.5 15.5l13 29v0z" />
    <glyph glyph-name="uni1E5A" unicode="&#x1e5a;" horiz-adv-x="553" 
d="M270 341q88 0 134.5 35.5t46.5 108.5q0 74 -46.5 104.5t-134.5 30.5h-130v-279h130zM458 0l-178 303h-140v-303h-46v659h188q49 0 89 -9.5t68.5 -30.5t44 -54t15.5 -80q0 -79 -45.5 -123.5t-123.5 -55.5l181 -306h-53zM295 -194q-17 0 -27.5 11t-10.5 30q0 17 10.5 28
t27.5 11t27.5 -11t10.5 -28q0 -19 -10.5 -30t-27.5 -11z" />
    <glyph glyph-name="uni1E5C" unicode="&#x1e5c;" horiz-adv-x="553" 
d="M270 341q88 0 134.5 35.5t46.5 108.5q0 74 -46.5 104.5t-134.5 30.5h-130v-279h130zM458 0l-178 303h-140v-303h-46v659h188q49 0 89 -9.5t68.5 -30.5t44 -54t15.5 -80q0 -79 -45.5 -123.5t-123.5 -55.5l181 -306h-53zM167 770h228v-36h-228v36zM295 -194q-17 0 -27.5 11
t-10.5 30q0 17 10.5 28t27.5 11t27.5 -11t10.5 -28q0 -19 -10.5 -30t-27.5 -11z" />
    <glyph glyph-name="uni1E5E" unicode="&#x1e5e;" horiz-adv-x="553" 
d="M270 341q88 0 134.5 35.5t46.5 108.5q0 74 -46.5 104.5t-134.5 30.5h-130v-279h130zM458 0l-178 303h-140v-303h-46v659h188q49 0 89 -9.5t68.5 -30.5t44 -54t15.5 -80q0 -79 -45.5 -123.5t-123.5 -55.5l181 -306h-53zM408 -160h-228v36h228v-36z" />
    <glyph glyph-name="Sacute" unicode="&#x15a;" horiz-adv-x="514" 
d="M72 119q36 -41 86 -65t108 -24q75 0 119.5 36.5t44.5 95.5q0 31 -9.5 52t-25.5 36.5t-38 27t-46 22.5l-100 45q-21 9 -44.5 22t-43 32.5t-32.5 46t-13 63.5q0 36 14.5 65.5t40 51t60.5 33.5t76 12q60 0 107 -23.5t77 -55.5l-27 -31q-29 31 -68 49.5t-89 18.5
q-66 0 -105.5 -32t-39.5 -86q0 -29 11 -49t28 -34.5t37 -25t38 -18.5l100 -44q27 -12 52 -27t44 -35t30.5 -47.5t11.5 -65.5t-15 -70.5t-42.5 -56t-66.5 -37t-87 -13.5q-72 0 -127.5 27.5t-94.5 71.5zM271 709h-40l92 106h58z" />
    <glyph glyph-name="Scircumflex" unicode="&#x15c;" horiz-adv-x="514" 
d="M72 119q36 -41 86 -65t108 -24q75 0 119.5 36.5t44.5 95.5q0 31 -9.5 52t-25.5 36.5t-38 27t-46 22.5l-100 45q-21 9 -44.5 22t-43 32.5t-32.5 46t-13 63.5q0 36 14.5 65.5t40 51t60.5 33.5t76 12q60 0 107 -23.5t77 -55.5l-27 -31q-29 31 -68 49.5t-89 18.5
q-66 0 -105.5 -32t-39.5 -86q0 -29 11 -49t28 -34.5t37 -25t38 -18.5l100 -44q27 -12 52 -27t44 -35t30.5 -47.5t11.5 -65.5t-15 -70.5t-42.5 -56t-66.5 -37t-87 -13.5q-72 0 -127.5 27.5t-94.5 71.5zM151 709l96 106h42l96 -106h-40l-75 72h-4l-75 -72h-40z" />
    <glyph glyph-name="Scaron" unicode="&#x160;" horiz-adv-x="514" 
d="M72 119q36 -41 86 -65t108 -24q75 0 119.5 36.5t44.5 95.5q0 31 -9.5 52t-25.5 36.5t-38 27t-46 22.5l-100 45q-21 9 -44.5 22t-43 32.5t-32.5 46t-13 63.5q0 36 14.5 65.5t40 51t60.5 33.5t76 12q60 0 107 -23.5t77 -55.5l-27 -31q-29 31 -68 49.5t-89 18.5
q-66 0 -105.5 -32t-39.5 -86q0 -29 11 -49t28 -34.5t37 -25t38 -18.5l100 -44q27 -12 52 -27t44 -35t30.5 -47.5t11.5 -65.5t-15 -70.5t-42.5 -56t-66.5 -37t-87 -13.5q-72 0 -127.5 27.5t-94.5 71.5zM385 815l-96 -106h-42l-96 106h40l75 -72h4l75 72h40z" />
    <glyph glyph-name="uni015E" unicode="&#x15e;" horiz-adv-x="514" 
d="M72 119q36 -41 86 -65t108 -24q75 0 119.5 36.5t44.5 95.5q0 31 -9.5 52t-25.5 36.5t-38 27t-46 22.5l-100 45q-21 9 -44.5 22t-43 32.5t-32.5 46t-13 63.5q0 36 14.5 65.5t40 51t60.5 33.5t76 12q60 0 107 -23.5t77 -55.5l-27 -31q-29 31 -68 49.5t-89 18.5
q-66 0 -105.5 -32t-39.5 -86q0 -29 11 -49t28 -34.5t37 -25t38 -18.5l100 -44q27 -12 52 -27t44 -35t30.5 -47.5t11.5 -65.5t-15 -70.5t-42.5 -56t-66.5 -37t-87 -13.5q-72 0 -127.5 27.5t-94.5 71.5zM257 2h35l-29 -56q24 -8 42 -23.5t18 -45.5q0 -20 -10.5 -34.5
t-28 -24.5t-40 -16.5t-46.5 -9.5l-7 30q42 6 67.5 18t25.5 33q0 23 -19 34t-48 19z" />
    <glyph glyph-name="uni0218" unicode="&#x218;" horiz-adv-x="514" 
d="M72 119q36 -41 86 -65t108 -24q75 0 119.5 36.5t44.5 95.5q0 31 -9.5 52t-25.5 36.5t-38 27t-46 22.5l-100 45q-21 9 -44.5 22t-43 32.5t-32.5 46t-13 63.5q0 36 14.5 65.5t40 51t60.5 33.5t76 12q60 0 107 -23.5t77 -55.5l-27 -31q-29 31 -68 49.5t-89 18.5
q-66 0 -105.5 -32t-39.5 -86q0 -29 11 -49t28 -34.5t37 -25t38 -18.5l100 -44q27 -12 52 -27t44 -35t30.5 -47.5t11.5 -65.5t-15 -70.5t-42.5 -56t-66.5 -37t-87 -13.5q-72 0 -127.5 27.5t-94.5 71.5zM240 -51q41 -8 62 -25t21 -48q0 -20 -10.5 -34.5t-28 -24.5t-40 -16.5
t-46.5 -9.5l-7 30q42 6 67.5 18t25.5 32q0 23 -17.5 33.5t-39.5 15.5l13 29v0z" />
    <glyph glyph-name="uni1E60" unicode="&#x1e60;" horiz-adv-x="514" 
d="M72 119q36 -41 86 -65t108 -24q75 0 119.5 36.5t44.5 95.5q0 31 -9.5 52t-25.5 36.5t-38 27t-46 22.5l-100 45q-21 9 -44.5 22t-43 32.5t-32.5 46t-13 63.5q0 36 14.5 65.5t40 51t60.5 33.5t76 12q60 0 107 -23.5t77 -55.5l-27 -31q-29 31 -68 49.5t-89 18.5
q-66 0 -105.5 -32t-39.5 -86q0 -29 11 -49t28 -34.5t37 -25t38 -18.5l100 -44q27 -12 52 -27t44 -35t30.5 -47.5t11.5 -65.5t-15 -70.5t-42.5 -56t-66.5 -37t-87 -13.5q-72 0 -127.5 27.5t-94.5 71.5zM268 721q-17 0 -28.5 11t-11.5 30q0 17 11.5 28t28.5 11t28.5 -11
t11.5 -28q0 -19 -11.5 -30t-28.5 -11z" />
    <glyph glyph-name="uni1E62" unicode="&#x1e62;" horiz-adv-x="514" 
d="M72 119q36 -41 86 -65t108 -24q75 0 119.5 36.5t44.5 95.5q0 31 -9.5 52t-25.5 36.5t-38 27t-46 22.5l-100 45q-21 9 -44.5 22t-43 32.5t-32.5 46t-13 63.5q0 36 14.5 65.5t40 51t60.5 33.5t76 12q60 0 107 -23.5t77 -55.5l-27 -31q-29 31 -68 49.5t-89 18.5
q-66 0 -105.5 -32t-39.5 -86q0 -29 11 -49t28 -34.5t37 -25t38 -18.5l100 -44q27 -12 52 -27t44 -35t30.5 -47.5t11.5 -65.5t-15 -70.5t-42.5 -56t-66.5 -37t-87 -13.5q-72 0 -127.5 27.5t-94.5 71.5zM265 -194q-17 0 -27.5 11t-10.5 30q0 17 10.5 28t27.5 11t27.5 -11
t10.5 -28q0 -19 -10.5 -30t-27.5 -11z" />
    <glyph glyph-name="uni1E9E" unicode="&#x1e9e;" horiz-adv-x="637" 
d="M94 422q0 53 15.5 98.5t45.5 79t75 52.5t105 19q76 0 123 -37.5t76 -100.5l-155 -170q61 -10 102.5 -28.5t67 -44t36.5 -57t11 -66.5q0 -38 -14 -71t-38.5 -57t-58 -37.5t-72.5 -13.5q-53 0 -99 20.5t-78 58.5l30 32q32 -36 66.5 -53t79.5 -17q65 0 100 38.5t35 98.5
q0 28 -8.5 53.5t-32.5 46.5t-66 37t-109 27l-3 35l153 170q-19 40 -55 67.5t-93 27.5q-88 0 -140.5 -53t-52.5 -168v-409h-46v422z" />
    <glyph glyph-name="Tcaron" unicode="&#x164;" horiz-adv-x="517" 
d="M236 619h-210v40h465v-40h-209v-619h-46v619zM374 815l-96 -106h-42l-96 106h40l75 -72h4l75 72h40z" />
    <glyph glyph-name="uni0162" unicode="&#x162;" horiz-adv-x="517" 
d="M236 619h-210v40h465v-40h-209v-619h-46v619zM243 2h35l-29 -56q24 -8 42 -23.5t18 -45.5q0 -20 -10.5 -34.5t-28 -24.5t-40 -16.5t-46.5 -9.5l-7 30q42 6 67.5 18t25.5 33q0 23 -19 34t-48 19z" />
    <glyph glyph-name="uni021A" unicode="&#x21a;" horiz-adv-x="517" 
d="M236 619h-210v40h465v-40h-209v-619h-46v619zM234 -51q41 -8 62 -25t21 -48q0 -20 -10.5 -34.5t-28 -24.5t-40 -16.5t-46.5 -9.5l-7 30q42 6 67.5 18t25.5 32q0 23 -17.5 33.5t-39.5 15.5l13 29v0z" />
    <glyph glyph-name="uni1E6C" unicode="&#x1e6c;" horiz-adv-x="517" 
d="M236 619h-210v40h465v-40h-209v-619h-46v619zM259 -194q-17 0 -27.5 11t-10.5 30q0 17 10.5 28t27.5 11t27.5 -11t10.5 -28q0 -19 -10.5 -30t-27.5 -11z" />
    <glyph glyph-name="uni1E6E" unicode="&#x1e6e;" horiz-adv-x="517" 
d="M236 619h-210v40h465v-40h-209v-619h-46v619zM372 -160h-228v36h228v-36z" />
    <glyph glyph-name="Ugrave" unicode="&#xd9;" horiz-adv-x="627" 
d="M91 659h46v-401q0 -66 14.5 -109.5t38.5 -70t56 -37.5t67 -11q36 0 68 11t57 37.5t39.5 70t14.5 109.5v401h44v-406q0 -77 -19 -128t-50 -81.5t-71.5 -43t-82.5 -12.5q-43 0 -83 12.5t-71 43t-49.5 81.5t-18.5 128v406zM200 815h58l92 -106h-40z" />
    <glyph glyph-name="Uacute" unicode="&#xda;" horiz-adv-x="627" 
d="M91 659h46v-401q0 -66 14.5 -109.5t38.5 -70t56 -37.5t67 -11q36 0 68 11t57 37.5t39.5 70t14.5 109.5v401h44v-406q0 -77 -19 -128t-50 -81.5t-71.5 -43t-82.5 -12.5q-43 0 -83 12.5t-71 43t-49.5 81.5t-18.5 128v406zM316 709h-40l92 106h58z" />
    <glyph glyph-name="Ucircumflex" unicode="&#xdb;" horiz-adv-x="627" 
d="M91 659h46v-401q0 -66 14.5 -109.5t38.5 -70t56 -37.5t67 -11q36 0 68 11t57 37.5t39.5 70t14.5 109.5v401h44v-406q0 -77 -19 -128t-50 -81.5t-71.5 -43t-82.5 -12.5q-43 0 -83 12.5t-71 43t-49.5 81.5t-18.5 128v406zM196 709l96 106h42l96 -106h-40l-75 72h-4l-75 -72
h-40z" />
    <glyph glyph-name="Utilde" unicode="&#x168;" horiz-adv-x="627" 
d="M91 659h46v-401q0 -66 14.5 -109.5t38.5 -70t56 -37.5t67 -11q36 0 68 11t57 37.5t39.5 70t14.5 109.5v401h44v-406q0 -77 -19 -128t-50 -81.5t-71.5 -43t-82.5 -12.5q-43 0 -83 12.5t-71 43t-49.5 81.5t-18.5 128v406zM372 716q-20 0 -35.5 9t-29 19.5t-26.5 19.5t-28 9
q-16 0 -27 -15.5t-14 -41.5h-29q1 17 6 33.5t14 29.5t21.5 21t29.5 8q20 0 35 -9t28.5 -19.5t27 -19t28.5 -8.5q16 0 27 15t14 41h29q-1 -17 -6 -33t-14 -29.5t-21.5 -21.5t-29.5 -8z" />
    <glyph glyph-name="Udieresis" unicode="&#xdc;" horiz-adv-x="627" 
d="M91 659h46v-401q0 -66 14.5 -109.5t38.5 -70t56 -37.5t67 -11q36 0 68 11t57 37.5t39.5 70t14.5 109.5v401h44v-406q0 -77 -19 -128t-50 -81.5t-71.5 -43t-82.5 -12.5q-43 0 -83 12.5t-71 43t-49.5 81.5t-18.5 128v406zM234 725q-16 0 -26 9.5t-10 26.5t10 27t26 10
t26.5 -10t10.5 -27t-10.5 -26.5t-26.5 -9.5zM392 725q-16 0 -26.5 9.5t-10.5 26.5t10.5 27t26.5 10t26 -10t10 -27t-10 -26.5t-26 -9.5z" />
    <glyph glyph-name="Umacron" unicode="&#x16a;" horiz-adv-x="627" 
d="M91 659h46v-401q0 -66 14.5 -109.5t38.5 -70t56 -37.5t67 -11q36 0 68 11t57 37.5t39.5 70t14.5 109.5v401h44v-406q0 -77 -19 -128t-50 -81.5t-71.5 -43t-82.5 -12.5q-43 0 -83 12.5t-71 43t-49.5 81.5t-18.5 128v406zM199 770h228v-36h-228v36z" />
    <glyph glyph-name="Ubreve" unicode="&#x16c;" horiz-adv-x="627" 
d="M91 659h46v-401q0 -66 14.5 -109.5t38.5 -70t56 -37.5t67 -11q36 0 68 11t57 37.5t39.5 70t14.5 109.5v401h44v-406q0 -77 -19 -128t-50 -81.5t-71.5 -43t-82.5 -12.5q-43 0 -83 12.5t-71 43t-49.5 81.5t-18.5 128v406zM313 711q-29 0 -49.5 10t-34.5 25t-21.5 33.5
t-9.5 35.5h33q4 -26 23.5 -49t58.5 -23q19 0 33.5 6.5t24.5 16.5t16 23t8 26h33q-2 -17 -9.5 -35.5t-21.5 -33.5t-35 -25t-49 -10z" />
    <glyph glyph-name="Uring" unicode="&#x16e;" horiz-adv-x="627" 
d="M91 659h46v-401q0 -66 14.5 -109.5t38.5 -70t56 -37.5t67 -11q36 0 68 11t57 37.5t39.5 70t14.5 109.5v401h44v-406q0 -77 -19 -128t-50 -81.5t-71.5 -43t-82.5 -12.5q-43 0 -83 12.5t-71 43t-49.5 81.5t-18.5 128v406zM313 700q-35 0 -58.5 22t-23.5 60q0 37 23.5 59.5
t58.5 22.5q34 0 58 -22.5t24 -59.5q0 -38 -24 -60t-58 -22zM313 726q20 0 35.5 14t15.5 42q0 26 -15.5 41t-35.5 15q-22 0 -37 -15t-15 -41q0 -28 15 -42t37 -14z" />
    <glyph glyph-name="Uhungarumlaut" unicode="&#x170;" horiz-adv-x="627" 
d="M91 659h46v-401q0 -66 14.5 -109.5t38.5 -70t56 -37.5t67 -11q36 0 68 11t57 37.5t39.5 70t14.5 109.5v401h44v-406q0 -77 -19 -128t-50 -81.5t-71.5 -43t-82.5 -12.5q-43 0 -83 12.5t-71 43t-49.5 81.5t-18.5 128v406zM221 709l67 106h49l-80 -106h-36zM433 815h49
l-80 -106h-36z" />
    <glyph glyph-name="uni01D3" unicode="&#x1d3;" horiz-adv-x="627" 
d="M91 659h46v-401q0 -66 14.5 -109.5t38.5 -70t56 -37.5t67 -11q36 0 68 11t57 37.5t39.5 70t14.5 109.5v401h44v-406q0 -77 -19 -128t-50 -81.5t-71.5 -43t-82.5 -12.5q-43 0 -83 12.5t-71 43t-49.5 81.5t-18.5 128v406zM430 815l-96 -106h-42l-96 106h40l75 -72h4l75 72
h40z" />
    <glyph glyph-name="uni01D5" unicode="&#x1d5;" horiz-adv-x="627" 
d="M91 659h46v-401q0 -66 14.5 -109.5t38.5 -70t56 -37.5t67 -11q36 0 68 11t57 37.5t39.5 70t14.5 109.5v401h44v-406q0 -77 -19 -128t-50 -81.5t-71.5 -43t-82.5 -12.5q-43 0 -83 12.5t-71 43t-49.5 81.5t-18.5 128v406zM199 887h228v-33h-228v33zM234 725q-15 0 -25 9
t-10 26t10 26.5t25 9.5t25.5 -9.5t10.5 -26.5t-10.5 -26t-25.5 -9zM392 725q-15 0 -25.5 9t-10.5 26t10.5 26.5t25.5 9.5t25 -9.5t10 -26.5t-10 -26t-25 -9z" />
    <glyph glyph-name="uni01D7" unicode="&#x1d7;" horiz-adv-x="627" 
d="M91 659h46v-401q0 -66 14.5 -109.5t38.5 -70t56 -37.5t67 -11q36 0 68 11t57 37.5t39.5 70t14.5 109.5v401h44v-406q0 -77 -19 -128t-50 -81.5t-71.5 -43t-82.5 -12.5q-43 0 -83 12.5t-71 43t-49.5 81.5t-18.5 128v406zM370 935h54l-109 -106h-39zM234 725q-15 0 -25 9
t-10 26t10 26.5t25 9.5t25.5 -9.5t10.5 -26.5t-10.5 -26t-25.5 -9zM392 725q-15 0 -25.5 9t-10.5 26t10.5 26.5t25.5 9.5t25 -9.5t10 -26.5t-10 -26t-25 -9z" />
    <glyph glyph-name="uni01D9" unicode="&#x1d9;" horiz-adv-x="627" 
d="M91 659h46v-401q0 -66 14.5 -109.5t38.5 -70t56 -37.5t67 -11q36 0 68 11t57 37.5t39.5 70t14.5 109.5v401h44v-406q0 -77 -19 -128t-50 -81.5t-71.5 -43t-82.5 -12.5q-43 0 -83 12.5t-71 43t-49.5 81.5t-18.5 128v406zM234 725q-15 0 -25 9t-10 26t10 26.5t25 9.5
t25.5 -9.5t10.5 -26.5t-10.5 -26t-25.5 -9zM392 725q-15 0 -25.5 9t-10.5 26t10.5 26.5t25.5 9.5t25 -9.5t10 -26.5t-10 -26t-25 -9zM430 935l-96 -106h-42l-96 106h40l75 -72h4l75 72h40z" />
    <glyph glyph-name="uni01DB" unicode="&#x1db;" horiz-adv-x="627" 
d="M91 659h46v-401q0 -66 14.5 -109.5t38.5 -70t56 -37.5t67 -11q36 0 68 11t57 37.5t39.5 70t14.5 109.5v401h44v-406q0 -77 -19 -128t-50 -81.5t-71.5 -43t-82.5 -12.5q-43 0 -83 12.5t-71 43t-49.5 81.5t-18.5 128v406zM350 829h-39l-109 106h54zM392 725q-15 0 -25.5 9
t-10.5 26t10.5 26.5t25.5 9.5t25 -9.5t10 -26.5t-10 -26t-25 -9zM234 725q-15 0 -25 9t-10 26t10 26.5t25 9.5t25.5 -9.5t10.5 -26.5t-10.5 -26t-25.5 -9z" />
    <glyph glyph-name="uni1EE4" unicode="&#x1ee4;" horiz-adv-x="627" 
d="M91 659h46v-401q0 -66 14.5 -109.5t38.5 -70t56 -37.5t67 -11q36 0 68 11t57 37.5t39.5 70t14.5 109.5v401h44v-406q0 -77 -19 -128t-50 -81.5t-71.5 -43t-82.5 -12.5q-43 0 -83 12.5t-71 43t-49.5 81.5t-18.5 128v406zM313 -194q-17 0 -27.5 11t-10.5 30q0 17 10.5 28
t27.5 11t27.5 -11t10.5 -28q0 -19 -10.5 -30t-27.5 -11z" />
    <glyph glyph-name="uni1EE6" unicode="&#x1ee6;" horiz-adv-x="627" 
d="M91 659h46v-401q0 -66 14.5 -109.5t38.5 -70t56 -37.5t67 -11q36 0 68 11t57 37.5t39.5 70t14.5 109.5v401h44v-406q0 -77 -19 -128t-50 -81.5t-71.5 -43t-82.5 -12.5q-43 0 -83 12.5t-71 43t-49.5 81.5t-18.5 128v406zM281 729q27 8 45 20.5t18 33.5q0 45 -85 48l4 32
q25 -1 47 -5.5t38.5 -13.5t26 -22.5t9.5 -32.5q0 -20 -8 -34t-21.5 -24t-30.5 -17t-35 -12z" />
    <glyph glyph-name="Uogonek" unicode="&#x172;" horiz-adv-x="627" 
d="M91 659h46v-401q0 -66 14.5 -109.5t38.5 -70t56 -37.5t67 -11q36 0 68 11t57 37.5t39.5 70t14.5 109.5v401h44v-406q0 -65 -12.5 -108t-34 -72t-49.5 -47.5t-59 -33.5q-40 -20 -62 -51t-22 -57t16 -39t35 -13q25 0 43 14l16 -27q-11 -10 -29.5 -17t-35.5 -7
q-35 0 -59.5 20t-24.5 62q0 19 6 35t15 29t20.5 24.5l22.5 22.5q-48 0 -90.5 13t-73.5 44t-49 82t-18 126v406z" />
    <glyph glyph-name="Uhorn" unicode="&#x1af;" horiz-adv-x="638" 
d="M617 786q10 -14 15 -27t5 -28q0 -23 -8.5 -39.5t-22.5 -28t-32.5 -19t-37.5 -11.5v-380q0 -77 -19 -128t-50 -81.5t-71.5 -43t-82.5 -12.5q-43 0 -83 12.5t-71 43t-49.5 81.5t-18.5 128v406h46v-401q0 -66 14.5 -109.5t38.5 -70t56 -37.5t67 -11q36 0 68 11t57 37.5
t39.5 70t14.5 109.5v401h14q46 7 68.5 22.5t22.5 46.5q0 18 -15 39z" />
    <glyph glyph-name="uni1EE8" unicode="&#x1ee8;" horiz-adv-x="638" 
d="M617 786q10 -14 15 -27t5 -28q0 -23 -8.5 -39.5t-22.5 -28t-32.5 -19t-37.5 -11.5v-380q0 -77 -19 -128t-50 -81.5t-71.5 -43t-82.5 -12.5q-43 0 -83 12.5t-71 43t-49.5 81.5t-18.5 128v406h46v-401q0 -66 14.5 -109.5t38.5 -70t56 -37.5t67 -11q36 0 68 11t57 37.5
t39.5 70t14.5 109.5v401h14q46 7 68.5 22.5t22.5 46.5q0 18 -15 39zM316 709h-40l92 106h58z" />
    <glyph glyph-name="uni1EEA" unicode="&#x1eea;" horiz-adv-x="638" 
d="M617 786q10 -14 15 -27t5 -28q0 -23 -8.5 -39.5t-22.5 -28t-32.5 -19t-37.5 -11.5v-380q0 -77 -19 -128t-50 -81.5t-71.5 -43t-82.5 -12.5q-43 0 -83 12.5t-71 43t-49.5 81.5t-18.5 128v406h46v-401q0 -66 14.5 -109.5t38.5 -70t56 -37.5t67 -11q36 0 68 11t57 37.5
t39.5 70t14.5 109.5v401h14q46 7 68.5 22.5t22.5 46.5q0 18 -15 39zM200 815h58l92 -106h-40z" />
    <glyph glyph-name="uni1EEC" unicode="&#x1eec;" horiz-adv-x="638" 
d="M617 786q10 -14 15 -27t5 -28q0 -23 -8.5 -39.5t-22.5 -28t-32.5 -19t-37.5 -11.5v-380q0 -77 -19 -128t-50 -81.5t-71.5 -43t-82.5 -12.5q-43 0 -83 12.5t-71 43t-49.5 81.5t-18.5 128v406h46v-401q0 -66 14.5 -109.5t38.5 -70t56 -37.5t67 -11q36 0 68 11t57 37.5
t39.5 70t14.5 109.5v401h14q46 7 68.5 22.5t22.5 46.5q0 18 -15 39zM281 729q27 8 45 20.5t18 33.5q0 45 -85 48l4 32q25 -1 47 -5.5t38.5 -13.5t26 -22.5t9.5 -32.5q0 -20 -8 -34t-21.5 -24t-30.5 -17t-35 -12z" />
    <glyph glyph-name="uni1EEE" unicode="&#x1eee;" horiz-adv-x="638" 
d="M617 786q10 -14 15 -27t5 -28q0 -23 -8.5 -39.5t-22.5 -28t-32.5 -19t-37.5 -11.5v-380q0 -77 -19 -128t-50 -81.5t-71.5 -43t-82.5 -12.5q-43 0 -83 12.5t-71 43t-49.5 81.5t-18.5 128v406h46v-401q0 -66 14.5 -109.5t38.5 -70t56 -37.5t67 -11q36 0 68 11t57 37.5
t39.5 70t14.5 109.5v401h14q46 7 68.5 22.5t22.5 46.5q0 18 -15 39zM372 716q-20 0 -35.5 9t-29 19.5t-26.5 19.5t-28 9q-16 0 -27 -15.5t-14 -41.5h-29q1 17 6 33.5t14 29.5t21.5 21t29.5 8q20 0 35 -9t28.5 -19.5t27 -19t28.5 -8.5q16 0 27 15t14 41h29q-1 -17 -6 -33
t-14 -29.5t-21.5 -21.5t-29.5 -8z" />
    <glyph glyph-name="uni1EF0" unicode="&#x1ef0;" horiz-adv-x="638" 
d="M617 786q10 -14 15 -27t5 -28q0 -23 -8.5 -39.5t-22.5 -28t-32.5 -19t-37.5 -11.5v-380q0 -77 -19 -128t-50 -81.5t-71.5 -43t-82.5 -12.5q-43 0 -83 12.5t-71 43t-49.5 81.5t-18.5 128v406h46v-401q0 -66 14.5 -109.5t38.5 -70t56 -37.5t67 -11q36 0 68 11t57 37.5
t39.5 70t14.5 109.5v401h14q46 7 68.5 22.5t22.5 46.5q0 18 -15 39zM313 -194q-17 0 -27.5 11t-10.5 30q0 17 10.5 28t27.5 11t27.5 -11t10.5 -28q0 -19 -10.5 -30t-27.5 -11z" />
    <glyph glyph-name="Wgrave" unicode="&#x1e80;" horiz-adv-x="763" 
d="M24 659h49l82 -388l23.5 -107.5l22.5 -107.5h4q11 54 24 107.5l26 107.5l104 388h46l104 -388l26 -107.5l26 -107.5h4l22 107.5l22 107.5l82 388h46l-148 -659h-51l-120 452l-17.5 74.5l-17.5 74.5h-4q-8 -39 -17.5 -74.5t-18.5 -74.5l-118 -452h-51zM268 815h58l92 -106
h-40z" />
    <glyph glyph-name="Wacute" unicode="&#x1e82;" horiz-adv-x="763" 
d="M24 659h49l82 -388l23.5 -107.5l22.5 -107.5h4q11 54 24 107.5l26 107.5l104 388h46l104 -388l26 -107.5l26 -107.5h4l22 107.5l22 107.5l82 388h46l-148 -659h-51l-120 452l-17.5 74.5l-17.5 74.5h-4q-8 -39 -17.5 -74.5t-18.5 -74.5l-118 -452h-51zM384 709h-40l92 106
h58z" />
    <glyph glyph-name="Wcircumflex" unicode="&#x174;" horiz-adv-x="763" 
d="M24 659h49l82 -388l23.5 -107.5l22.5 -107.5h4q11 54 24 107.5l26 107.5l104 388h46l104 -388l26 -107.5l26 -107.5h4l22 107.5l22 107.5l82 388h46l-148 -659h-51l-120 452l-17.5 74.5l-17.5 74.5h-4q-8 -39 -17.5 -74.5t-18.5 -74.5l-118 -452h-51zM264 709l96 106h42
l96 -106h-40l-75 72h-4l-75 -72h-40z" />
    <glyph glyph-name="Wdieresis" unicode="&#x1e84;" horiz-adv-x="763" 
d="M24 659h49l82 -388l23.5 -107.5l22.5 -107.5h4q11 54 24 107.5l26 107.5l104 388h46l104 -388l26 -107.5l26 -107.5h4l22 107.5l22 107.5l82 388h46l-148 -659h-51l-120 452l-17.5 74.5l-17.5 74.5h-4q-8 -39 -17.5 -74.5t-18.5 -74.5l-118 -452h-51zM302 725
q-16 0 -26 9.5t-10 26.5t10 27t26 10t26.5 -10t10.5 -27t-10.5 -26.5t-26.5 -9.5zM460 725q-16 0 -26.5 9.5t-10.5 26.5t10.5 27t26.5 10t26 -10t10 -27t-10 -26.5t-26 -9.5z" />
    <glyph glyph-name="Ygrave" unicode="&#x1ef2;" horiz-adv-x="440" 
d="M197 267l-198 392h49l100 -206l34 -71l36 -71h4l37 71l35 71l100 206h47l-198 -392v-267h-46v267zM107 815h58l92 -106h-40z" />
    <glyph glyph-name="Yacute" unicode="&#xdd;" horiz-adv-x="440" 
d="M197 267l-198 392h49l100 -206l34 -71l36 -71h4l37 71l35 71l100 206h47l-198 -392v-267h-46v267zM223 709h-40l92 106h58z" />
    <glyph glyph-name="Ycircumflex" unicode="&#x176;" horiz-adv-x="440" 
d="M197 267l-198 392h49l100 -206l34 -71l36 -71h4l37 71l35 71l100 206h47l-198 -392v-267h-46v267zM103 709l96 106h42l96 -106h-40l-75 72h-4l-75 -72h-40z" />
    <glyph glyph-name="Ydieresis" unicode="&#x178;" horiz-adv-x="440" 
d="M197 267l-198 392h49l100 -206l34 -71l36 -71h4l37 71l35 71l100 206h47l-198 -392v-267h-46v267zM141 725q-16 0 -26 9.5t-10 26.5t10 27t26 10t26.5 -10t10.5 -27t-10.5 -26.5t-26.5 -9.5zM299 725q-16 0 -26.5 9.5t-10.5 26.5t10.5 27t26.5 10t26 -10t10 -27
t-10 -26.5t-26 -9.5z" />
    <glyph glyph-name="uni1E8E" unicode="&#x1e8e;" horiz-adv-x="440" 
d="M197 267l-198 392h49l100 -206l34 -71l36 -71h4l37 71l35 71l100 206h47l-198 -392v-267h-46v267zM220 721q-17 0 -28.5 11t-11.5 30q0 17 11.5 28t28.5 11t28.5 -11t11.5 -28q0 -19 -11.5 -30t-28.5 -11z" />
    <glyph glyph-name="uni1EF4" unicode="&#x1ef4;" horiz-adv-x="440" 
d="M197 267l-198 392h49l100 -206l34 -71l36 -71h4l37 71l35 71l100 206h47l-198 -392v-267h-46v267zM222 -194q-17 0 -27.5 11t-10.5 30q0 17 10.5 28t27.5 11t27.5 -11t10.5 -28q0 -19 -10.5 -30t-27.5 -11z" />
    <glyph glyph-name="uni1EF6" unicode="&#x1ef6;" horiz-adv-x="440" 
d="M197 267l-198 392h49l100 -206l34 -71l36 -71h4l37 71l35 71l100 206h47l-198 -392v-267h-46v267zM188 729q27 8 45 20.5t18 33.5q0 45 -85 48l4 32q25 -1 47 -5.5t38.5 -13.5t26 -22.5t9.5 -32.5q0 -20 -8 -34t-21.5 -24t-30.5 -17t-35 -12z" />
    <glyph glyph-name="uni1EF8" unicode="&#x1ef8;" horiz-adv-x="440" 
d="M197 267l-198 392h49l100 -206l34 -71l36 -71h4l37 71l35 71l100 206h47l-198 -392v-267h-46v267zM279 716q-20 0 -35.5 9t-29 19.5t-26.5 19.5t-28 9q-16 0 -27 -15.5t-14 -41.5h-29q1 17 6 33.5t14 29.5t21.5 21t29.5 8q20 0 35 -9t28.5 -19.5t27 -19t28.5 -8.5
q16 0 27 15t14 41h29q-1 -17 -6 -33t-14 -29.5t-21.5 -21.5t-29.5 -8z" />
    <glyph glyph-name="Zacute" unicode="&#x179;" horiz-adv-x="531" 
d="M46 27l380 592h-346v40h403v-27l-379 -592h383v-40h-441v27zM278 709h-40l92 106h58z" />
    <glyph glyph-name="Zcaron" unicode="&#x17d;" horiz-adv-x="531" 
d="M46 27l380 592h-346v40h403v-27l-379 -592h383v-40h-441v27zM392 815l-96 -106h-42l-96 106h40l75 -72h4l75 72h40z" />
    <glyph glyph-name="Zdotaccent" unicode="&#x17b;" horiz-adv-x="531" 
d="M46 27l380 592h-346v40h403v-27l-379 -592h383v-40h-441v27zM275 721q-17 0 -28.5 11t-11.5 30q0 17 11.5 28t28.5 11t28.5 -11t11.5 -28q0 -19 -11.5 -30t-28.5 -11z" />
    <glyph glyph-name="uni1E92" unicode="&#x1e92;" horiz-adv-x="531" 
d="M46 27l380 592h-346v40h403v-27l-379 -592h383v-40h-441v27zM277 -194q-17 0 -27.5 11t-10.5 30q0 17 10.5 28t27.5 11t27.5 -11t10.5 -28q0 -19 -10.5 -30t-27.5 -11z" />
    <glyph glyph-name="Eth" unicode="&#xd0;" horiz-adv-x="616" 
d="M258 39q67 0 115.5 21.5t80 60.5t46.5 92.5t15 118.5q0 64 -15 117t-46.5 91t-80 59t-115.5 21h-101v-255h166v-33h-166v-293h101zM263 659q76 0 132.5 -23t93.5 -66t55.5 -103t18.5 -135t-18.5 -136.5t-55.5 -105t-93 -67t-132 -23.5h-153v332h-78v31l78 2v294h152z" />
    <glyph glyph-name="Thorn" unicode="&#xde;" horiz-adv-x="562" 
d="M94 659h46v-117h134q55 0 98.5 -10t74 -31.5t46.5 -56.5t16 -86q0 -97 -62 -144.5t-173 -47.5h-134v-166h-46v659zM262 205q102 0 150.5 36t48.5 117q0 82 -49 113.5t-150 31.5h-122v-298h122z" />
    <glyph glyph-name="uni018F" unicode="&#x18f;" horiz-adv-x="644" 
d="M108 299q3 -62 19.5 -112t44.5 -85.5t66 -54.5t83 -19q48 0 87.5 19.5t68.5 54.5t46.5 85t21.5 112h-437zM131 596q32 32 81.5 53.5t112.5 21.5q62 0 111.5 -23.5t84 -68t53 -107.5t18.5 -141t-20 -141.5t-55.5 -108t-85.5 -69t-110 -24.5t-108 25t-82 70t-52 107
t-18 136q0 7 1 11h484q-1 67 -16 121.5t-43 92.5t-69 59t-93 21q-51 0 -95 -18t-76 -48z" />
    <glyph glyph-name="agrave" unicode="&#xe0;" horiz-adv-x="499" 
d="M65 120q0 79 75 121t235 60q1 27 -3.5 54.5t-17 49t-35 35t-57.5 13.5q-49 0 -89 -19t-64 -37l-20 33q13 9 31.5 20t41 20t49.5 15.5t56 6.5q43 0 72 -14.5t47 -39.5t25.5 -58.5t7.5 -72.5v-307h-37l-5 62h-2q-37 -29 -79.5 -51.5t-90.5 -22.5q-29 0 -54 8t-44.5 24
t-30.5 41t-11 59zM111 122q0 -52 30 -74t71 -22q42 0 80 20t83 58v163q-74 -9 -124.5 -22t-81.5 -31t-44.5 -41t-13.5 -51zM174 708h52l92 -136h-38z" />
    <glyph glyph-name="aacute" unicode="&#xe1;" horiz-adv-x="499" 
d="M65 120q0 79 75 121t235 60q1 27 -3.5 54.5t-17 49t-35 35t-57.5 13.5q-49 0 -89 -19t-64 -37l-20 33q13 9 31.5 20t41 20t49.5 15.5t56 6.5q43 0 72 -14.5t47 -39.5t25.5 -58.5t7.5 -72.5v-307h-37l-5 62h-2q-37 -29 -79.5 -51.5t-90.5 -22.5q-29 0 -54 8t-44.5 24
t-30.5 41t-11 59zM111 122q0 -52 30 -74t71 -22q42 0 80 20t83 58v163q-74 -9 -124.5 -22t-81.5 -31t-44.5 -41t-13.5 -51zM244 572h-38l92 136h52z" />
    <glyph glyph-name="acircumflex" unicode="&#xe2;" horiz-adv-x="499" 
d="M65 120q0 79 75 121t235 60q1 27 -3.5 54.5t-17 49t-35 35t-57.5 13.5q-49 0 -89 -19t-64 -37l-20 33q13 9 31.5 20t41 20t49.5 15.5t56 6.5q43 0 72 -14.5t47 -39.5t25.5 -58.5t7.5 -72.5v-307h-37l-5 62h-2q-37 -29 -79.5 -51.5t-90.5 -22.5q-29 0 -54 8t-44.5 24
t-30.5 41t-11 59zM111 122q0 -52 30 -74t71 -22q42 0 80 20t83 58v163q-74 -9 -124.5 -22t-81.5 -31t-44.5 -41t-13.5 -51zM243 708h38l95 -136h-37l-75 99h-4l-75 -99h-37z" />
    <glyph glyph-name="atilde" unicode="&#xe3;" horiz-adv-x="499" 
d="M65 120q0 79 75 121t235 60q1 27 -3.5 54.5t-17 49t-35 35t-57.5 13.5q-49 0 -89 -19t-64 -37l-20 33q13 9 31.5 20t41 20t49.5 15.5t56 6.5q43 0 72 -14.5t47 -39.5t25.5 -58.5t7.5 -72.5v-307h-37l-5 62h-2q-37 -29 -79.5 -51.5t-90.5 -22.5q-29 0 -54 8t-44.5 24
t-30.5 41t-11 59zM111 122q0 -52 30 -74t71 -22q42 0 80 20t83 58v163q-74 -9 -124.5 -22t-81.5 -31t-44.5 -41t-13.5 -51zM138 581q1 16 5 32t12.5 28.5t21 20.5t30.5 8t33 -8.5t28 -19t25 -19t25 -8.5q16 0 25 14.5t13 40.5h30q-1 -16 -5 -32t-12.5 -28.5t-21 -20.5
t-30.5 -8t-33 8.5t-27.5 19t-25 19t-25.5 8.5q-30 0 -38 -55h-30v0z" />
    <glyph glyph-name="adieresis" unicode="&#xe4;" horiz-adv-x="499" 
d="M65 120q0 79 75 121t235 60q1 27 -3.5 54.5t-17 49t-35 35t-57.5 13.5q-49 0 -89 -19t-64 -37l-20 33q13 9 31.5 20t41 20t49.5 15.5t56 6.5q43 0 72 -14.5t47 -39.5t25.5 -58.5t7.5 -72.5v-307h-37l-5 62h-2q-37 -29 -79.5 -51.5t-90.5 -22.5q-29 0 -54 8t-44.5 24
t-30.5 41t-11 59zM111 122q0 -52 30 -74t71 -22q42 0 80 20t83 58v163q-74 -9 -124.5 -22t-81.5 -31t-44.5 -41t-13.5 -51zM183 598q-16 0 -26 10.5t-10 26.5q0 15 10 25.5t26 10.5t26.5 -10.5t10.5 -25.5q0 -16 -10.5 -26.5t-26.5 -10.5zM341 598q-16 0 -26.5 10.5
t-10.5 26.5q0 15 10.5 25.5t26.5 10.5t26 -10.5t10 -25.5q0 -16 -10 -26.5t-26 -10.5z" />
    <glyph glyph-name="amacron" unicode="&#x101;" horiz-adv-x="499" 
d="M65 120q0 79 75 121t235 60q1 27 -3.5 54.5t-17 49t-35 35t-57.5 13.5q-49 0 -89 -19t-64 -37l-20 33q13 9 31.5 20t41 20t49.5 15.5t56 6.5q43 0 72 -14.5t47 -39.5t25.5 -58.5t7.5 -72.5v-307h-37l-5 62h-2q-37 -29 -79.5 -51.5t-90.5 -22.5q-29 0 -54 8t-44.5 24
t-30.5 41t-11 59zM111 122q0 -52 30 -74t71 -22q42 0 80 20t83 58v163q-74 -9 -124.5 -22t-81.5 -31t-44.5 -41t-13.5 -51zM149 642h226v-36h-226v36z" />
    <glyph glyph-name="abreve" unicode="&#x103;" horiz-adv-x="499" 
d="M65 120q0 79 75 121t235 60q1 27 -3.5 54.5t-17 49t-35 35t-57.5 13.5q-49 0 -89 -19t-64 -37l-20 33q13 9 31.5 20t41 20t49.5 15.5t56 6.5q43 0 72 -14.5t47 -39.5t25.5 -58.5t7.5 -72.5v-307h-37l-5 62h-2q-37 -29 -79.5 -51.5t-90.5 -22.5q-29 0 -54 8t-44.5 24
t-30.5 41t-11 59zM111 122q0 -52 30 -74t71 -22q42 0 80 20t83 58v163q-74 -9 -124.5 -22t-81.5 -31t-44.5 -41t-13.5 -51zM262 576q-31 0 -52.5 11.5t-35.5 29t-21.5 38.5t-9.5 40h33q2 -16 8.5 -31.5t17 -28t25.5 -20t35 -7.5t35 7.5t25.5 20t17 28t8.5 31.5h33
q-2 -19 -9.5 -40t-21.5 -38.5t-35.5 -29t-52.5 -11.5z" />
    <glyph glyph-name="aring" unicode="&#xe5;" horiz-adv-x="499" 
d="M65 120q0 79 75 121t235 60q1 27 -3.5 54.5t-17 49t-35 35t-57.5 13.5q-49 0 -89 -19t-64 -37l-20 33q13 9 31.5 20t41 20t49.5 15.5t56 6.5q43 0 72 -14.5t47 -39.5t25.5 -58.5t7.5 -72.5v-307h-37l-5 62h-2q-37 -29 -79.5 -51.5t-90.5 -22.5q-29 0 -54 8t-44.5 24
t-30.5 41t-11 59zM111 122q0 -52 30 -74t71 -22q42 0 80 20t83 58v163q-74 -9 -124.5 -22t-81.5 -31t-44.5 -41t-13.5 -51zM262 539q-35 0 -58.5 24t-23.5 62q0 39 23.5 63t58.5 24t58.5 -24t23.5 -63q0 -38 -23.5 -62t-58.5 -24zM262 565q22 0 37 16.5t15 43.5
q0 28 -15 44.5t-37 16.5t-37 -16.5t-15 -44.5q0 -27 15 -43.5t37 -16.5z" />
    <glyph glyph-name="uni01CE" unicode="&#x1ce;" horiz-adv-x="499" 
d="M65 120q0 79 75 121t235 60q1 27 -3.5 54.5t-17 49t-35 35t-57.5 13.5q-49 0 -89 -19t-64 -37l-20 33q13 9 31.5 20t41 20t49.5 15.5t56 6.5q43 0 72 -14.5t47 -39.5t25.5 -58.5t7.5 -72.5v-307h-37l-5 62h-2q-37 -29 -79.5 -51.5t-90.5 -22.5q-29 0 -54 8t-44.5 24
t-30.5 41t-11 59zM111 122q0 -52 30 -74t71 -22q42 0 80 20t83 58v163q-74 -9 -124.5 -22t-81.5 -31t-44.5 -41t-13.5 -51zM148 708h37l75 -99h4l75 99h37l-95 -136h-38z" />
    <glyph glyph-name="uni1EA1" unicode="&#x1ea1;" horiz-adv-x="499" 
d="M65 120q0 79 75 121t235 60q1 27 -3.5 54.5t-17 49t-35 35t-57.5 13.5q-49 0 -89 -19t-64 -37l-20 33q13 9 31.5 20t41 20t49.5 15.5t56 6.5q43 0 72 -14.5t47 -39.5t25.5 -58.5t7.5 -72.5v-307h-37l-5 62h-2q-37 -29 -79.5 -51.5t-90.5 -22.5q-29 0 -54 8t-44.5 24
t-30.5 41t-11 59zM111 122q0 -52 30 -74t71 -22q42 0 80 20t83 58v163q-74 -9 -124.5 -22t-81.5 -31t-44.5 -41t-13.5 -51zM246 -194q-17 0 -27.5 11t-10.5 30q0 17 10.5 28t27.5 11t27.5 -11t10.5 -28q0 -19 -10.5 -30t-27.5 -11z" />
    <glyph glyph-name="uni1EA3" unicode="&#x1ea3;" horiz-adv-x="499" 
d="M65 120q0 79 75 121t235 60q1 27 -3.5 54.5t-17 49t-35 35t-57.5 13.5q-49 0 -89 -19t-64 -37l-20 33q13 9 31.5 20t41 20t49.5 15.5t56 6.5q43 0 72 -14.5t47 -39.5t25.5 -58.5t7.5 -72.5v-307h-37l-5 62h-2q-37 -29 -79.5 -51.5t-90.5 -22.5q-29 0 -54 8t-44.5 24
t-30.5 41t-11 59zM111 122q0 -52 30 -74t71 -22q42 0 80 20t83 58v163q-74 -9 -124.5 -22t-81.5 -31t-44.5 -41t-13.5 -51zM230 577q27 8 45 20.5t18 34.5q0 45 -85 48l4 32q25 -1 47 -6t38.5 -14t26 -22.5t9.5 -32.5q0 -20 -8 -34t-21.5 -24t-30.5 -16.5t-35 -11.5z" />
    <glyph glyph-name="uni1EA5" unicode="&#x1ea5;" horiz-adv-x="499" 
d="M65 120q0 79 75 121t235 60q1 27 -3.5 54.5t-17 49t-35 35t-57.5 13.5q-49 0 -89 -19t-64 -37l-20 33q13 9 31.5 20t41 20t49.5 15.5t56 6.5q43 0 72 -14.5t47 -39.5t25.5 -58.5t7.5 -72.5v-307h-37l-5 62h-2q-37 -29 -79.5 -51.5t-90.5 -22.5q-29 0 -54 8t-44.5 24
t-30.5 41t-11 59zM111 122q0 -52 30 -74t71 -22q42 0 80 20t83 58v163q-74 -9 -124.5 -22t-81.5 -31t-44.5 -41t-13.5 -51zM243 686h38l84 -114h-36l-65 78h-4l-65 -78h-36zM417 748h46l-90 -111h-33z" />
    <glyph glyph-name="uni1EA7" unicode="&#x1ea7;" horiz-adv-x="499" 
d="M65 120q0 79 75 121t235 60q1 27 -3.5 54.5t-17 49t-35 35t-57.5 13.5q-49 0 -89 -19t-64 -37l-20 33q13 9 31.5 20t41 20t49.5 15.5t56 6.5q43 0 72 -14.5t47 -39.5t25.5 -58.5t7.5 -72.5v-307h-37l-5 62h-2q-37 -29 -79.5 -51.5t-90.5 -22.5q-29 0 -54 8t-44.5 24
t-30.5 41t-11 59zM111 122q0 -52 30 -74t71 -22q42 0 80 20t83 58v163q-74 -9 -124.5 -22t-81.5 -31t-44.5 -41t-13.5 -51zM243 686h38l84 -114h-36l-65 78h-4l-65 -78h-36zM435 637h-33l-91 111h47z" />
    <glyph glyph-name="uni1EA9" unicode="&#x1ea9;" horiz-adv-x="499" 
d="M65 120q0 79 75 121t235 60q1 27 -3.5 54.5t-17 49t-35 35t-57.5 13.5q-49 0 -89 -19t-64 -37l-20 33q13 9 31.5 20t41 20t49.5 15.5t56 6.5q43 0 72 -14.5t47 -39.5t25.5 -58.5t7.5 -72.5v-307h-37l-5 62h-2q-37 -29 -79.5 -51.5t-90.5 -22.5q-29 0 -54 8t-44.5 24
t-30.5 41t-11 59zM111 122q0 -52 30 -74t71 -22q42 0 80 20t83 58v163q-74 -9 -124.5 -22t-81.5 -31t-44.5 -41t-13.5 -51zM243 686h38l84 -114h-36l-65 78h-4l-65 -78h-36zM357 653q21 8 35 18.5t14 27.5q0 43 -71 46l3 29q45 -2 75.5 -18t30.5 -52q0 -17 -7 -29.5
t-18.5 -21.5t-25.5 -15t-28 -10z" />
    <glyph glyph-name="uni1EAB" unicode="&#x1eab;" horiz-adv-x="499" 
d="M65 120q0 79 75 121t235 60q1 27 -3.5 54.5t-17 49t-35 35t-57.5 13.5q-49 0 -89 -19t-64 -37l-20 33q13 9 31.5 20t41 20t49.5 15.5t56 6.5q43 0 72 -14.5t47 -39.5t25.5 -58.5t7.5 -72.5v-307h-37l-5 62h-2q-37 -29 -79.5 -51.5t-90.5 -22.5q-29 0 -54 8t-44.5 24
t-30.5 41t-11 59zM111 122q0 -52 30 -74t71 -22q42 0 80 20t83 58v163q-74 -9 -124.5 -22t-81.5 -31t-44.5 -41t-13.5 -51zM242 670h40l91 -100h-36l-73 69h-4l-73 -69h-36zM141 706q1 14 5.5 28t13 25t21.5 17.5t30 6.5q18 0 31.5 -7t24.5 -15.5t22 -15.5t24 -7q34 0 42 45
h28q-1 -14 -5.5 -28t-13 -25t-21.5 -17.5t-30 -6.5q-18 0 -31.5 7t-25 15.5t-22 15.5t-23.5 7q-35 0 -42 -45h-28z" />
    <glyph glyph-name="uni1EAD" unicode="&#x1ead;" horiz-adv-x="499" 
d="M65 120q0 79 75 121t235 60q1 27 -3.5 54.5t-17 49t-35 35t-57.5 13.5q-49 0 -89 -19t-64 -37l-20 33q13 9 31.5 20t41 20t49.5 15.5t56 6.5q43 0 72 -14.5t47 -39.5t25.5 -58.5t7.5 -72.5v-307h-37l-5 62h-2q-37 -29 -79.5 -51.5t-90.5 -22.5q-29 0 -54 8t-44.5 24
t-30.5 41t-11 59zM111 122q0 -52 30 -74t71 -22q42 0 80 20t83 58v163q-74 -9 -124.5 -22t-81.5 -31t-44.5 -41t-13.5 -51zM243 708h38l95 -136h-37l-75 99h-4l-75 -99h-37zM246 -194q-17 0 -27.5 11t-10.5 30q0 17 10.5 28t27.5 11t27.5 -11t10.5 -28q0 -19 -10.5 -30
t-27.5 -11z" />
    <glyph glyph-name="uni1EAF" unicode="&#x1eaf;" horiz-adv-x="499" 
d="M65 120q0 79 75 121t235 60q1 27 -3.5 54.5t-17 49t-35 35t-57.5 13.5q-49 0 -89 -19t-64 -37l-20 33q13 9 31.5 20t41 20t49.5 15.5t56 6.5q43 0 72 -14.5t47 -39.5t25.5 -58.5t7.5 -72.5v-307h-37l-5 62h-2q-37 -29 -79.5 -51.5t-90.5 -22.5q-29 0 -54 8t-44.5 24
t-30.5 41t-11 59zM111 122q0 -52 30 -74t71 -22q42 0 80 20t83 58v163q-74 -9 -124.5 -22t-81.5 -31t-44.5 -41t-13.5 -51zM304 777h46l-86 -110h-34zM262 576q-31 0 -52.5 11.5t-35.5 29t-21.5 38.5t-9.5 40h31q4 -33 25.5 -60.5t62.5 -27.5q21 0 36.5 7.5t26 20t17 28
t8.5 32.5h31q-2 -19 -9.5 -40t-21.5 -38.5t-35.5 -29t-52.5 -11.5z" />
    <glyph glyph-name="uni1EB1" unicode="&#x1eb1;" horiz-adv-x="499" 
d="M65 120q0 79 75 121t235 60q1 27 -3.5 54.5t-17 49t-35 35t-57.5 13.5q-49 0 -89 -19t-64 -37l-20 33q13 9 31.5 20t41 20t49.5 15.5t56 6.5q43 0 72 -14.5t47 -39.5t25.5 -58.5t7.5 -72.5v-307h-37l-5 62h-2q-37 -29 -79.5 -51.5t-90.5 -22.5q-29 0 -54 8t-44.5 24
t-30.5 41t-11 59zM111 122q0 -52 30 -74t71 -22q42 0 80 20t83 58v163q-74 -9 -124.5 -22t-81.5 -31t-44.5 -41t-13.5 -51zM294 667h-34l-86 110h46zM262 576q-31 0 -52.5 11.5t-35.5 29t-21.5 38.5t-9.5 40h31q4 -33 25.5 -60.5t62.5 -27.5q21 0 36.5 7.5t26 20t17 28
t8.5 32.5h31q-2 -19 -9.5 -40t-21.5 -38.5t-35.5 -29t-52.5 -11.5z" />
    <glyph glyph-name="uni1EB3" unicode="&#x1eb3;" horiz-adv-x="499" 
d="M65 120q0 79 75 121t235 60q1 27 -3.5 54.5t-17 49t-35 35t-57.5 13.5q-49 0 -89 -19t-64 -37l-20 33q13 9 31.5 20t41 20t49.5 15.5t56 6.5q43 0 72 -14.5t47 -39.5t25.5 -58.5t7.5 -72.5v-307h-37l-5 62h-2q-37 -29 -79.5 -51.5t-90.5 -22.5q-29 0 -54 8t-44.5 24
t-30.5 41t-11 59zM111 122q0 -52 30 -74t71 -22q42 0 80 20t83 58v163q-74 -9 -124.5 -22t-81.5 -31t-44.5 -41t-13.5 -51zM262 576q-31 0 -52.5 11.5t-35.5 29t-21.5 38.5t-9.5 40h31q4 -33 25.5 -60.5t62.5 -27.5q21 0 36.5 7.5t26 20t17 28t8.5 32.5h31q-2 -19 -9.5 -40
t-21.5 -38.5t-35.5 -29t-52.5 -11.5zM232 701q22 7 35.5 17.5t13.5 27.5q0 23 -17.5 33.5t-53.5 12.5l4 29q45 -2 75 -18t30 -51q0 -18 -7 -30.5t-18.5 -21.5t-25.5 -15t-28 -10z" />
    <glyph glyph-name="uni1EB5" unicode="&#x1eb5;" horiz-adv-x="499" 
d="M65 120q0 79 75 121t235 60q1 27 -3.5 54.5t-17 49t-35 35t-57.5 13.5q-49 0 -89 -19t-64 -37l-20 33q13 9 31.5 20t41 20t49.5 15.5t56 6.5q43 0 72 -14.5t47 -39.5t25.5 -58.5t7.5 -72.5v-307h-37l-5 62h-2q-37 -29 -79.5 -51.5t-90.5 -22.5q-29 0 -54 8t-44.5 24
t-30.5 41t-11 59zM111 122q0 -52 30 -74t71 -22q42 0 80 20t83 58v163q-74 -9 -124.5 -22t-81.5 -31t-44.5 -41t-13.5 -51zM262 576q-31 0 -52 9t-35 23t-21 31.5t-9 35.5h31q5 -26 25.5 -47t60.5 -21t60.5 21t25.5 47h31q-2 -18 -9 -35.5t-21 -31.5t-35 -23t-52 -9z
M141 706q1 14 5.5 28t13 25t21.5 17.5t30 6.5q18 0 31.5 -7t24.5 -15.5t22 -15.5t24 -7q34 0 42 45h28q-1 -14 -5.5 -28t-13 -25t-21.5 -17.5t-30 -6.5q-18 0 -31.5 7t-25 15.5t-22 15.5t-23.5 7q-35 0 -42 -45h-28z" />
    <glyph glyph-name="uni1EB7" unicode="&#x1eb7;" horiz-adv-x="499" 
d="M65 120q0 79 75 121t235 60q1 27 -3.5 54.5t-17 49t-35 35t-57.5 13.5q-49 0 -89 -19t-64 -37l-20 33q13 9 31.5 20t41 20t49.5 15.5t56 6.5q43 0 72 -14.5t47 -39.5t25.5 -58.5t7.5 -72.5v-307h-37l-5 62h-2q-37 -29 -79.5 -51.5t-90.5 -22.5q-29 0 -54 8t-44.5 24
t-30.5 41t-11 59zM111 122q0 -52 30 -74t71 -22q42 0 80 20t83 58v163q-74 -9 -124.5 -22t-81.5 -31t-44.5 -41t-13.5 -51zM262 576q-31 0 -52.5 11.5t-35.5 29t-21.5 38.5t-9.5 40h33q2 -16 8.5 -31.5t17 -28t25.5 -20t35 -7.5t35 7.5t25.5 20t17 28t8.5 31.5h33
q-2 -19 -9.5 -40t-21.5 -38.5t-35.5 -29t-52.5 -11.5zM246 -194q-17 0 -27.5 11t-10.5 30q0 17 10.5 28t27.5 11t27.5 -11t10.5 -28q0 -19 -10.5 -30t-27.5 -11z" />
    <glyph glyph-name="aogonek" unicode="&#x105;" horiz-adv-x="499" 
d="M111 122q0 -52 30 -74t71 -22q42 0 80 20t83 58v163q-74 -9 -124.5 -22t-81.5 -31t-44.5 -41t-13.5 -51zM65 119q0 80 75 122t235 60q1 27 -3.5 54.5t-17 49t-35 35t-57.5 13.5q-49 0 -89 -19t-64 -37l-20 33q13 9 31.5 20t41 20t49.5 15.5t56 6.5q43 0 72 -14.5
t47 -39.5t25.5 -58.5t7.5 -72.5v-307q-38 -19 -62 -51.5t-24 -64.5q0 -26 15 -39t34 -13q25 0 43 14l16 -26q-11 -10 -29.5 -16.5t-35.5 -6.5q-35 0 -58 20t-23 61q0 38 26 72.5t61 56.5l-5 55h-2q-37 -29 -79.5 -51.5t-90.5 -22.5q-29 0 -54 8t-44.5 24t-30.5 40.5
t-11 58.5z" />
    <glyph glyph-name="ae" unicode="&#xe6;" horiz-adv-x="784" 
d="M111 122q0 -52 30 -74t71 -22q19 0 42 6t46.5 18t46.5 29.5t44 39.5q-11 22 -16 54.5t-5 66.5l-1 27q-70 -9 -119 -22t-80 -31t-45 -41t-14 -51zM89 430q13 9 31 20t40.5 20t48 15.5t52.5 6.5q59 0 93.5 -32.5t46.5 -87.5q26 55 69.5 87.5t97.5 32.5q85 0 131.5 -58
t46.5 -164v-18t-2 -18h-332q0 -45 13 -83t36 -65.5t54.5 -43t67.5 -15.5q39 0 68.5 11.5t56.5 31.5l19 -35q-14 -9 -29 -17t-33 -15t-39 -11t-47 -4q-32 0 -58 8.5t-47 22.5t-37.5 31.5t-29.5 36.5q-48 -46 -102.5 -72.5t-99.5 -26.5q-29 0 -54 8t-44.5 24t-30.5 40.5
t-11 58.5q0 80 75 122t230 60q0 27 -4 54.5t-16.5 49t-35 35t-57.5 13.5q-45 0 -84.5 -19t-63.5 -37zM705 268q0 93 -36.5 139.5t-101.5 46.5q-30 0 -56.5 -13.5t-47 -38t-34 -59t-17.5 -75.5h293z" />
    <glyph glyph-name="ccedilla" unicode="&#xe7;" horiz-adv-x="449" 
d="M52 239q0 60 18 107.5t48 79.5t69.5 49t83.5 17q50 0 83.5 -18t57.5 -41l-26 -31q-23 22 -51 36.5t-63 14.5q-37 0 -68.5 -15.5t-55 -44t-37 -67.5t-13.5 -87q0 -47 12.5 -86t35 -67t55 -43.5t71.5 -15.5q38 0 70.5 16t57.5 39l23 -30q-31 -28 -69 -46t-84 -18
q-47 0 -86.5 17t-69 49t-46 78.5t-16.5 106.5zM257 2h35l-29 -56q24 -8 42 -23.5t18 -45.5q0 -20 -10.5 -34.5t-28 -24.5t-40 -16.5t-46.5 -9.5l-7 30q42 6 67.5 18t25.5 33q0 23 -19 34t-48 19z" />
    <glyph glyph-name="cacute" unicode="&#x107;" horiz-adv-x="449" 
d="M52 239q0 60 18 107.5t48 79.5t69.5 49t83.5 17q50 0 83.5 -18t57.5 -41l-26 -31q-23 22 -51 36.5t-63 14.5q-37 0 -68.5 -15.5t-55 -44t-37 -67.5t-13.5 -87q0 -47 12.5 -86t35 -67t55 -43.5t71.5 -15.5q38 0 70.5 16t57.5 39l23 -30q-31 -28 -69 -46t-84 -18
q-47 0 -86.5 17t-69 49t-46 78.5t-16.5 106.5zM253 572h-38l92 136h52z" />
    <glyph glyph-name="ccircumflex" unicode="&#x109;" horiz-adv-x="449" 
d="M52 239q0 60 18 107.5t48 79.5t69.5 49t83.5 17q50 0 83.5 -18t57.5 -41l-26 -31q-23 22 -51 36.5t-63 14.5q-37 0 -68.5 -15.5t-55 -44t-37 -67.5t-13.5 -87q0 -47 12.5 -86t35 -67t55 -43.5t71.5 -15.5q38 0 70.5 16t57.5 39l23 -30q-31 -28 -69 -46t-84 -18
q-47 0 -86.5 17t-69 49t-46 78.5t-16.5 106.5zM252 708h38l95 -136h-37l-75 99h-4l-75 -99h-37z" />
    <glyph glyph-name="ccaron" unicode="&#x10d;" horiz-adv-x="449" 
d="M52 239q0 60 18 107.5t48 79.5t69.5 49t83.5 17q50 0 83.5 -18t57.5 -41l-26 -31q-23 22 -51 36.5t-63 14.5q-37 0 -68.5 -15.5t-55 -44t-37 -67.5t-13.5 -87q0 -47 12.5 -86t35 -67t55 -43.5t71.5 -15.5q38 0 70.5 16t57.5 39l23 -30q-31 -28 -69 -46t-84 -18
q-47 0 -86.5 17t-69 49t-46 78.5t-16.5 106.5zM157 708h37l75 -99h4l75 99h37l-95 -136h-38z" />
    <glyph glyph-name="cdotaccent" unicode="&#x10b;" horiz-adv-x="449" 
d="M52 239q0 60 18 107.5t48 79.5t69.5 49t83.5 17q50 0 83.5 -18t57.5 -41l-26 -31q-23 22 -51 36.5t-63 14.5q-37 0 -68.5 -15.5t-55 -44t-37 -67.5t-13.5 -87q0 -47 12.5 -86t35 -67t55 -43.5t71.5 -15.5q38 0 70.5 16t57.5 39l23 -30q-31 -28 -69 -46t-84 -18
q-47 0 -86.5 17t-69 49t-46 78.5t-16.5 106.5zM271 596q-17 0 -27.5 11t-10.5 30q0 17 10.5 28t27.5 11t27.5 -11t10.5 -28q0 -19 -10.5 -30t-27.5 -11z" />
    <glyph glyph-name="dcaron" unicode="&#x10f;" horiz-adv-x="549" 
d="M52 239q0 58 17 105t46.5 80t68 50.5t81.5 17.5q44 0 76.5 -15.5t68.5 -43.5l-2 88v198h44v-719h-38l-4 62h-3q-29 -29 -68.5 -51.5t-87.5 -22.5q-91 0 -145 64.5t-54 186.5zM99 239q0 -48 10.5 -87t30.5 -66.5t49.5 -43t67.5 -15.5q40 0 76.5 20.5t74.5 58.5v285
q-38 34 -71.5 48t-68.5 14q-36 0 -67 -16.5t-53.5 -45t-35.5 -68t-13 -84.5zM517 548l-3 206h38v-50l-8 -156h-27z" />
    <glyph glyph-name="uni1E0D" unicode="&#x1e0d;" horiz-adv-x="544" 
d="M52 239q0 58 17 105t46.5 80t68 50.5t81.5 17.5q44 0 76.5 -15.5t68.5 -43.5l-2 88v198h44v-719h-38l-4 62h-3q-29 -29 -68.5 -51.5t-87.5 -22.5q-91 0 -145 64.5t-54 186.5zM99 239q0 -48 10.5 -87t30.5 -66.5t49.5 -43t67.5 -15.5q40 0 76.5 20.5t74.5 58.5v285
q-38 34 -71.5 48t-68.5 14q-36 0 -67 -16.5t-53.5 -45t-35.5 -68t-13 -84.5zM296 -194q-17 0 -27.5 11t-10.5 30q0 17 10.5 28t27.5 11t27.5 -11t10.5 -28q0 -19 -10.5 -30t-27.5 -11z" />
    <glyph glyph-name="uni1E0F" unicode="&#x1e0f;" horiz-adv-x="544" 
d="M52 239q0 58 17 105t46.5 80t68 50.5t81.5 17.5q44 0 76.5 -15.5t68.5 -43.5l-2 88v198h44v-719h-38l-4 62h-3q-29 -29 -68.5 -51.5t-87.5 -22.5q-91 0 -145 64.5t-54 186.5zM99 239q0 -48 10.5 -87t30.5 -66.5t49.5 -43t67.5 -15.5q40 0 76.5 20.5t74.5 58.5v285
q-38 34 -71.5 48t-68.5 14q-36 0 -67 -16.5t-53.5 -45t-35.5 -68t-13 -84.5zM408 -160h-228v36h228v-36z" />
    <glyph glyph-name="dcroat" unicode="&#x111;" horiz-adv-x="544" 
d="M408 371q-38 34 -71.5 48t-68.5 14q-36 0 -67 -15.5t-53.5 -43t-35.5 -65t-13 -80.5q0 -91 40.5 -146.5t117.5 -55.5q40 0 76.5 20.5t74.5 58.5v265zM527 585l-75 -4v-581h-38l-5 62h-2q-29 -30 -68.5 -52t-87.5 -22q-91 0 -145 61.5t-54 179.5q0 56 17 101t46.5 76.5
t68 48.5t81.5 17q44 0 76.5 -15.5t68.5 -43.5l-2 88v80h-170v33h170v105h44v-105h75v-29z" />
    <glyph glyph-name="egrave" unicode="&#xe8;" horiz-adv-x="483" 
d="M52 239q0 59 17.5 106t47 79.5t67 50t77.5 17.5q86 0 135 -58t49 -164v-18t-2 -18h-346q1 -45 14 -83.5t36.5 -66t56.5 -43t74 -15.5q39 0 70.5 11.5t58.5 31.5l18 -34q-29 -17 -63.5 -32t-87.5 -15q-46 0 -86.5 17t-70.5 49.5t-47.5 79t-17.5 105.5zM403 268
q0 93 -38 139.5t-103 46.5q-31 0 -59 -13t-50.5 -37t-37 -58.5t-18.5 -77.5h306zM173 708h52l92 -136h-38z" />
    <glyph glyph-name="eacute" unicode="&#xe9;" horiz-adv-x="483" 
d="M52 239q0 59 17.5 106t47 79.5t67 50t77.5 17.5q86 0 135 -58t49 -164v-18t-2 -18h-346q1 -45 14 -83.5t36.5 -66t56.5 -43t74 -15.5q39 0 70.5 11.5t58.5 31.5l18 -34q-29 -17 -63.5 -32t-87.5 -15q-46 0 -86.5 17t-70.5 49.5t-47.5 79t-17.5 105.5zM403 268
q0 93 -38 139.5t-103 46.5q-31 0 -59 -13t-50.5 -37t-37 -58.5t-18.5 -77.5h306zM243 572h-38l92 136h52z" />
    <glyph glyph-name="ecircumflex" unicode="&#xea;" horiz-adv-x="483" 
d="M52 239q0 59 17.5 106t47 79.5t67 50t77.5 17.5q86 0 135 -58t49 -164v-18t-2 -18h-346q1 -45 14 -83.5t36.5 -66t56.5 -43t74 -15.5q39 0 70.5 11.5t58.5 31.5l18 -34q-29 -17 -63.5 -32t-87.5 -15q-46 0 -86.5 17t-70.5 49.5t-47.5 79t-17.5 105.5zM403 268
q0 93 -38 139.5t-103 46.5q-31 0 -59 -13t-50.5 -37t-37 -58.5t-18.5 -77.5h306zM242 708h38l95 -136h-37l-75 99h-4l-75 -99h-37z" />
    <glyph glyph-name="ecaron" unicode="&#x11b;" horiz-adv-x="483" 
d="M52 239q0 59 17.5 106t47 79.5t67 50t77.5 17.5q86 0 135 -58t49 -164v-18t-2 -18h-346q1 -45 14 -83.5t36.5 -66t56.5 -43t74 -15.5q39 0 70.5 11.5t58.5 31.5l18 -34q-29 -17 -63.5 -32t-87.5 -15q-46 0 -86.5 17t-70.5 49.5t-47.5 79t-17.5 105.5zM403 268
q0 93 -38 139.5t-103 46.5q-31 0 -59 -13t-50.5 -37t-37 -58.5t-18.5 -77.5h306zM147 708h37l75 -99h4l75 99h37l-95 -136h-38z" />
    <glyph glyph-name="edieresis" unicode="&#xeb;" horiz-adv-x="483" 
d="M52 239q0 59 17.5 106t47 79.5t67 50t77.5 17.5q86 0 135 -58t49 -164v-18t-2 -18h-346q1 -45 14 -83.5t36.5 -66t56.5 -43t74 -15.5q39 0 70.5 11.5t58.5 31.5l18 -34q-29 -17 -63.5 -32t-87.5 -15q-46 0 -86.5 17t-70.5 49.5t-47.5 79t-17.5 105.5zM403 268
q0 93 -38 139.5t-103 46.5q-31 0 -59 -13t-50.5 -37t-37 -58.5t-18.5 -77.5h306zM182 598q-16 0 -26 10.5t-10 26.5q0 15 10 25.5t26 10.5t26.5 -10.5t10.5 -25.5q0 -16 -10.5 -26.5t-26.5 -10.5zM340 598q-16 0 -26.5 10.5t-10.5 26.5q0 15 10.5 25.5t26.5 10.5t26 -10.5
t10 -25.5q0 -16 -10 -26.5t-26 -10.5z" />
    <glyph glyph-name="emacron" unicode="&#x113;" horiz-adv-x="483" 
d="M52 239q0 59 17.5 106t47 79.5t67 50t77.5 17.5q86 0 135 -58t49 -164v-18t-2 -18h-346q1 -45 14 -83.5t36.5 -66t56.5 -43t74 -15.5q39 0 70.5 11.5t58.5 31.5l18 -34q-29 -17 -63.5 -32t-87.5 -15q-46 0 -86.5 17t-70.5 49.5t-47.5 79t-17.5 105.5zM403 268
q0 93 -38 139.5t-103 46.5q-31 0 -59 -13t-50.5 -37t-37 -58.5t-18.5 -77.5h306zM148 642h226v-36h-226v36z" />
    <glyph glyph-name="ebreve" unicode="&#x115;" horiz-adv-x="483" 
d="M52 239q0 59 17.5 106t47 79.5t67 50t77.5 17.5q86 0 135 -58t49 -164v-18t-2 -18h-346q1 -45 14 -83.5t36.5 -66t56.5 -43t74 -15.5q39 0 70.5 11.5t58.5 31.5l18 -34q-29 -17 -63.5 -32t-87.5 -15q-46 0 -86.5 17t-70.5 49.5t-47.5 79t-17.5 105.5zM403 268
q0 93 -38 139.5t-103 46.5q-31 0 -59 -13t-50.5 -37t-37 -58.5t-18.5 -77.5h306zM261 576q-31 0 -52.5 11.5t-35.5 29t-21.5 38.5t-9.5 40h33q2 -16 8.5 -31.5t17 -28t25.5 -20t35 -7.5t35 7.5t25.5 20t17 28t8.5 31.5h33q-2 -19 -9.5 -40t-21.5 -38.5t-35.5 -29
t-52.5 -11.5z" />
    <glyph glyph-name="edotaccent" unicode="&#x117;" horiz-adv-x="483" 
d="M52 239q0 59 17.5 106t47 79.5t67 50t77.5 17.5q86 0 135 -58t49 -164v-18t-2 -18h-346q1 -45 14 -83.5t36.5 -66t56.5 -43t74 -15.5q39 0 70.5 11.5t58.5 31.5l18 -34q-29 -17 -63.5 -32t-87.5 -15q-46 0 -86.5 17t-70.5 49.5t-47.5 79t-17.5 105.5zM403 268
q0 93 -38 139.5t-103 46.5q-31 0 -59 -13t-50.5 -37t-37 -58.5t-18.5 -77.5h306zM261 596q-17 0 -27.5 11t-10.5 30q0 17 10.5 28t27.5 11t27.5 -11t10.5 -28q0 -19 -10.5 -30t-27.5 -11z" />
    <glyph glyph-name="uni1EB9" unicode="&#x1eb9;" horiz-adv-x="483" 
d="M52 239q0 59 17.5 106t47 79.5t67 50t77.5 17.5q86 0 135 -58t49 -164v-18t-2 -18h-346q1 -45 14 -83.5t36.5 -66t56.5 -43t74 -15.5q39 0 70.5 11.5t58.5 31.5l18 -34q-29 -17 -63.5 -32t-87.5 -15q-46 0 -86.5 17t-70.5 49.5t-47.5 79t-17.5 105.5zM403 268
q0 93 -38 139.5t-103 46.5q-31 0 -59 -13t-50.5 -37t-37 -58.5t-18.5 -77.5h306zM258 -194q-17 0 -27.5 11t-10.5 30q0 17 10.5 28t27.5 11t27.5 -11t10.5 -28q0 -19 -10.5 -30t-27.5 -11z" />
    <glyph glyph-name="uni1EBB" unicode="&#x1ebb;" horiz-adv-x="483" 
d="M52 239q0 59 17.5 106t47 79.5t67 50t77.5 17.5q86 0 135 -58t49 -164v-18t-2 -18h-346q1 -45 14 -83.5t36.5 -66t56.5 -43t74 -15.5q39 0 70.5 11.5t58.5 31.5l18 -34q-29 -17 -63.5 -32t-87.5 -15q-46 0 -86.5 17t-70.5 49.5t-47.5 79t-17.5 105.5zM403 268
q0 93 -38 139.5t-103 46.5q-31 0 -59 -13t-50.5 -37t-37 -58.5t-18.5 -77.5h306zM229 577q27 8 45 20.5t18 34.5q0 45 -85 48l4 32q25 -1 47 -6t38.5 -14t26 -22.5t9.5 -32.5q0 -20 -8 -34t-21.5 -24t-30.5 -16.5t-35 -11.5z" />
    <glyph glyph-name="uni1EBD" unicode="&#x1ebd;" horiz-adv-x="483" 
d="M52 239q0 59 17.5 106t47 79.5t67 50t77.5 17.5q86 0 135 -58t49 -164v-18t-2 -18h-346q1 -45 14 -83.5t36.5 -66t56.5 -43t74 -15.5q39 0 70.5 11.5t58.5 31.5l18 -34q-29 -17 -63.5 -32t-87.5 -15q-46 0 -86.5 17t-70.5 49.5t-47.5 79t-17.5 105.5zM403 268
q0 93 -38 139.5t-103 46.5q-31 0 -59 -13t-50.5 -37t-37 -58.5t-18.5 -77.5h306zM137 581q1 16 5 32t12.5 28.5t21 20.5t30.5 8t33 -8.5t28 -19t25 -19t25 -8.5q16 0 25 14.5t13 40.5h30q-1 -16 -5 -32t-12.5 -28.5t-21 -20.5t-30.5 -8t-33 8.5t-27.5 19t-25 19t-25.5 8.5
q-30 0 -38 -55h-30v0z" />
    <glyph glyph-name="uni1EBF" unicode="&#x1ebf;" horiz-adv-x="483" 
d="M52 239q0 59 17.5 106t47 79.5t67 50t77.5 17.5q86 0 135 -58t49 -164v-18t-2 -18h-346q1 -45 14 -83.5t36.5 -66t56.5 -43t74 -15.5q39 0 70.5 11.5t58.5 31.5l18 -34q-29 -17 -63.5 -32t-87.5 -15q-46 0 -86.5 17t-70.5 49.5t-47.5 79t-17.5 105.5zM403 268
q0 93 -38 139.5t-103 46.5q-31 0 -59 -13t-50.5 -37t-37 -58.5t-18.5 -77.5h306zM242 686h38l84 -114h-36l-65 78h-4l-65 -78h-36zM416 748h46l-90 -111h-33z" />
    <glyph glyph-name="uni1EC1" unicode="&#x1ec1;" horiz-adv-x="483" 
d="M52 239q0 59 17.5 106t47 79.5t67 50t77.5 17.5q86 0 135 -58t49 -164v-18t-2 -18h-346q1 -45 14 -83.5t36.5 -66t56.5 -43t74 -15.5q39 0 70.5 11.5t58.5 31.5l18 -34q-29 -17 -63.5 -32t-87.5 -15q-46 0 -86.5 17t-70.5 49.5t-47.5 79t-17.5 105.5zM403 268
q0 93 -38 139.5t-103 46.5q-31 0 -59 -13t-50.5 -37t-37 -58.5t-18.5 -77.5h306zM242 686h38l84 -114h-36l-65 78h-4l-65 -78h-36zM434 637h-33l-91 111h47z" />
    <glyph glyph-name="uni1EC3" unicode="&#x1ec3;" horiz-adv-x="483" 
d="M52 239q0 59 17.5 106t47 79.5t67 50t77.5 17.5q86 0 135 -58t49 -164v-18t-2 -18h-346q1 -45 14 -83.5t36.5 -66t56.5 -43t74 -15.5q39 0 70.5 11.5t58.5 31.5l18 -34q-29 -17 -63.5 -32t-87.5 -15q-46 0 -86.5 17t-70.5 49.5t-47.5 79t-17.5 105.5zM403 268
q0 93 -38 139.5t-103 46.5q-31 0 -59 -13t-50.5 -37t-37 -58.5t-18.5 -77.5h306zM242 686h38l84 -114h-36l-65 78h-4l-65 -78h-36zM356 653q21 8 35 18.5t14 27.5q0 43 -71 46l3 29q45 -2 75.5 -18t30.5 -52q0 -17 -7 -29.5t-18.5 -21.5t-25.5 -15t-28 -10z" />
    <glyph glyph-name="uni1EC5" unicode="&#x1ec5;" horiz-adv-x="483" 
d="M52 239q0 59 17.5 106t47 79.5t67 50t77.5 17.5q86 0 135 -58t49 -164v-18t-2 -18h-346q1 -45 14 -83.5t36.5 -66t56.5 -43t74 -15.5q39 0 70.5 11.5t58.5 31.5l18 -34q-29 -17 -63.5 -32t-87.5 -15q-46 0 -86.5 17t-70.5 49.5t-47.5 79t-17.5 105.5zM403 268
q0 93 -38 139.5t-103 46.5q-31 0 -59 -13t-50.5 -37t-37 -58.5t-18.5 -77.5h306zM241 670h40l91 -100h-36l-73 69h-4l-73 -69h-36zM140 706q1 14 5.5 28t13 25t21.5 17.5t30 6.5q18 0 31.5 -7t24.5 -15.5t22 -15.5t24 -7q34 0 42 45h28q-1 -14 -5.5 -28t-13 -25t-21.5 -17.5
t-30 -6.5q-18 0 -31.5 7t-25 15.5t-22 15.5t-23.5 7q-35 0 -42 -45h-28z" />
    <glyph glyph-name="uni1EC7" unicode="&#x1ec7;" horiz-adv-x="483" 
d="M52 239q0 59 17.5 106t47 79.5t67 50t77.5 17.5q86 0 135 -58t49 -164v-18t-2 -18h-346q1 -45 14 -83.5t36.5 -66t56.5 -43t74 -15.5q39 0 70.5 11.5t58.5 31.5l18 -34q-29 -17 -63.5 -32t-87.5 -15q-46 0 -86.5 17t-70.5 49.5t-47.5 79t-17.5 105.5zM403 268
q0 93 -38 139.5t-103 46.5q-31 0 -59 -13t-50.5 -37t-37 -58.5t-18.5 -77.5h306zM242 708h38l95 -136h-37l-75 99h-4l-75 -99h-37zM257 -194q-17 0 -27.5 11t-10.5 30q0 17 10.5 28t27.5 11t27.5 -11t10.5 -28q0 -19 -10.5 -30t-27.5 -11z" />
    <glyph glyph-name="eogonek" unicode="&#x119;" horiz-adv-x="483" 
d="M52 239q0 59 17.5 106t47 79.5t67 50t77.5 17.5q86 0 135 -58t49 -164v-19t-2 -17h-346q1 -45 14 -83.5t36.5 -66t56.5 -43t74 -15.5q39 0 70.5 11.5t58.5 31.5l18 -34q-32 -24 -54 -44t-35 -38.5t-18.5 -35.5t-5.5 -33q0 -26 14.5 -39t34.5 -13q25 0 43 14l16 -26
q-11 -10 -30 -16.5t-35 -6.5q-35 0 -58 20t-23 61q0 19 6 36.5t15 33t20 28t22 21.5q-16 -5 -31 -7t-32 -2q-46 0 -86.5 17t-70.5 49.5t-47.5 79t-17.5 105.5zM403 268q0 93 -37.5 139.5t-103.5 46.5q-31 0 -59 -13t-50.5 -37t-37 -58.5t-18.5 -77.5h306z" />
    <glyph glyph-name="gcircumflex" unicode="&#x11d;" horiz-adv-x="487" 
d="M94 -94q0 -45 41.5 -73t118.5 -28q40 0 73 10.5t56 27.5t35.5 38.5t12.5 44.5q0 40 -28.5 56.5t-82.5 16.5h-103q-8 0 -24.5 1.5t-35.5 6.5q-33 -23 -48 -49t-15 -52zM52 -98q0 32 19 62t52 54v4q-18 11 -30 30t-12 47q0 32 18 54.5t34 33.5v4q-23 20 -41.5 54t-18.5 78
q0 37 13 68t36 53.5t54 35t66 12.5q20 0 36 -3.5t27 -8.5h163v-37h-112q23 -20 38 -51.5t15 -69.5q0 -37 -13 -68t-35.5 -53.5t-53 -35t-65.5 -12.5q-20 0 -41.5 5t-38.5 15q-16 -13 -27.5 -29t-11.5 -40q0 -26 19 -44.5t73 -18.5h103q81 0 119.5 -26.5t38.5 -83.5
q0 -31 -16 -60.5t-45.5 -52t-71.5 -36t-94 -13.5q-91 0 -144 36t-53 97zM242 188q25 0 47.5 9.5t39.5 27.5t27 43t10 55t-10 55t-26.5 42t-39.5 26.5t-48 9.5q-26 0 -48.5 -9.5t-39.5 -26.5t-27 -41.5t-10 -55.5q0 -30 10 -55t27.5 -43t40 -27.5t47.5 -9.5zM213 708h38
l95 -136h-37l-75 99h-4l-75 -99h-37z" />
    <glyph glyph-name="gbreve" unicode="&#x11f;" horiz-adv-x="487" 
d="M94 -94q0 -45 41.5 -73t118.5 -28q40 0 73 10.5t56 27.5t35.5 38.5t12.5 44.5q0 40 -28.5 56.5t-82.5 16.5h-103q-8 0 -24.5 1.5t-35.5 6.5q-33 -23 -48 -49t-15 -52zM52 -98q0 32 19 62t52 54v4q-18 11 -30 30t-12 47q0 32 18 54.5t34 33.5v4q-23 20 -41.5 54t-18.5 78
q0 37 13 68t36 53.5t54 35t66 12.5q20 0 36 -3.5t27 -8.5h163v-37h-112q23 -20 38 -51.5t15 -69.5q0 -37 -13 -68t-35.5 -53.5t-53 -35t-65.5 -12.5q-20 0 -41.5 5t-38.5 15q-16 -13 -27.5 -29t-11.5 -40q0 -26 19 -44.5t73 -18.5h103q81 0 119.5 -26.5t38.5 -83.5
q0 -31 -16 -60.5t-45.5 -52t-71.5 -36t-94 -13.5q-91 0 -144 36t-53 97zM242 188q25 0 47.5 9.5t39.5 27.5t27 43t10 55t-10 55t-26.5 42t-39.5 26.5t-48 9.5q-26 0 -48.5 -9.5t-39.5 -26.5t-27 -41.5t-10 -55.5q0 -30 10 -55t27.5 -43t40 -27.5t47.5 -9.5zM232 576
q-31 0 -52.5 11.5t-35.5 29t-21.5 38.5t-9.5 40h33q2 -16 8.5 -31.5t17 -28t25.5 -20t35 -7.5t35 7.5t25.5 20t17 28t8.5 31.5h33q-2 -19 -9.5 -40t-21.5 -38.5t-35.5 -29t-52.5 -11.5z" />
    <glyph glyph-name="gdotaccent" unicode="&#x121;" horiz-adv-x="487" 
d="M94 -94q0 -45 41.5 -73t118.5 -28q40 0 73 10.5t56 27.5t35.5 38.5t12.5 44.5q0 40 -28.5 56.5t-82.5 16.5h-103q-8 0 -24.5 1.5t-35.5 6.5q-33 -23 -48 -49t-15 -52zM52 -98q0 32 19 62t52 54v4q-18 11 -30 30t-12 47q0 32 18 54.5t34 33.5v4q-23 20 -41.5 54t-18.5 78
q0 37 13 68t36 53.5t54 35t66 12.5q20 0 36 -3.5t27 -8.5h163v-37h-112q23 -20 38 -51.5t15 -69.5q0 -37 -13 -68t-35.5 -53.5t-53 -35t-65.5 -12.5q-20 0 -41.5 5t-38.5 15q-16 -13 -27.5 -29t-11.5 -40q0 -26 19 -44.5t73 -18.5h103q81 0 119.5 -26.5t38.5 -83.5
q0 -31 -16 -60.5t-45.5 -52t-71.5 -36t-94 -13.5q-91 0 -144 36t-53 97zM242 188q25 0 47.5 9.5t39.5 27.5t27 43t10 55t-10 55t-26.5 42t-39.5 26.5t-48 9.5q-26 0 -48.5 -9.5t-39.5 -26.5t-27 -41.5t-10 -55.5q0 -30 10 -55t27.5 -43t40 -27.5t47.5 -9.5zM232 596
q-17 0 -27.5 11t-10.5 30q0 17 10.5 28t27.5 11t27.5 -11t10.5 -28q0 -19 -10.5 -30t-27.5 -11z" />
    <glyph glyph-name="uni0123" unicode="&#x123;" horiz-adv-x="487" 
d="M94 -94q0 -45 41.5 -73t118.5 -28q40 0 73 10.5t56 27.5t35.5 38.5t12.5 44.5q0 40 -28.5 56.5t-82.5 16.5h-103q-8 0 -24.5 1.5t-35.5 6.5q-33 -23 -48 -49t-15 -52zM52 -98q0 32 19 62t52 54v4q-18 11 -30 30t-12 47q0 32 18 54.5t34 33.5v4q-23 20 -41.5 54t-18.5 78
q0 37 13 68t36 53.5t54 35t66 12.5q20 0 36 -3.5t27 -8.5h163v-37h-112q23 -20 38 -51.5t15 -69.5q0 -37 -13 -68t-35.5 -53.5t-53 -35t-65.5 -12.5q-20 0 -41.5 5t-38.5 15q-16 -13 -27.5 -29t-11.5 -40q0 -26 19 -44.5t73 -18.5h103q81 0 119.5 -26.5t38.5 -83.5
q0 -31 -16 -60.5t-45.5 -52t-71.5 -36t-94 -13.5q-91 0 -144 36t-53 97zM242 188q25 0 47.5 9.5t39.5 27.5t27 43t10 55t-10 55t-26.5 42t-39.5 26.5t-48 9.5q-26 0 -48.5 -9.5t-39.5 -26.5t-27 -41.5t-10 -55.5q0 -30 10 -55t27.5 -43t40 -27.5t47.5 -9.5zM256 539
q-42 8 -63 25t-21 48q0 19 10.5 34t28 25t40.5 16.5t47 9.5l6 -30q-42 -6 -67 -18t-25 -32q0 -23 17.5 -33.5t38.5 -15.5l-12 -29v0z" />
    <glyph glyph-name="gcaron" unicode="&#x1e7;" horiz-adv-x="487" 
d="M94 -94q0 -45 41.5 -73t118.5 -28q40 0 73 10.5t56 27.5t35.5 38.5t12.5 44.5q0 40 -28.5 56.5t-82.5 16.5h-103q-8 0 -24.5 1.5t-35.5 6.5q-33 -23 -48 -49t-15 -52zM52 -98q0 32 19 62t52 54v4q-18 11 -30 30t-12 47q0 32 18 54.5t34 33.5v4q-23 20 -41.5 54t-18.5 78
q0 37 13 68t36 53.5t54 35t66 12.5q20 0 36 -3.5t27 -8.5h163v-37h-112q23 -20 38 -51.5t15 -69.5q0 -37 -13 -68t-35.5 -53.5t-53 -35t-65.5 -12.5q-20 0 -41.5 5t-38.5 15q-16 -13 -27.5 -29t-11.5 -40q0 -26 19 -44.5t73 -18.5h103q81 0 119.5 -26.5t38.5 -83.5
q0 -31 -16 -60.5t-45.5 -52t-71.5 -36t-94 -13.5q-91 0 -144 36t-53 97zM242 188q25 0 47.5 9.5t39.5 27.5t27 43t10 55t-10 55t-26.5 42t-39.5 26.5t-48 9.5q-26 0 -48.5 -9.5t-39.5 -26.5t-27 -41.5t-10 -55.5q0 -30 10 -55t27.5 -43t40 -27.5t47.5 -9.5zM118 708h37
l75 -99h4l75 99h37l-95 -136h-38z" />
    <glyph glyph-name="uni1E21" unicode="&#x1e21;" horiz-adv-x="487" 
d="M94 -94q0 -45 41.5 -73t118.5 -28q40 0 73 10.5t56 27.5t35.5 38.5t12.5 44.5q0 40 -28.5 56.5t-82.5 16.5h-103q-8 0 -24.5 1.5t-35.5 6.5q-33 -23 -48 -49t-15 -52zM52 -98q0 32 19 62t52 54v4q-18 11 -30 30t-12 47q0 32 18 54.5t34 33.5v4q-23 20 -41.5 54t-18.5 78
q0 37 13 68t36 53.5t54 35t66 12.5q20 0 36 -3.5t27 -8.5h163v-37h-112q23 -20 38 -51.5t15 -69.5q0 -37 -13 -68t-35.5 -53.5t-53 -35t-65.5 -12.5q-20 0 -41.5 5t-38.5 15q-16 -13 -27.5 -29t-11.5 -40q0 -26 19 -44.5t73 -18.5h103q81 0 119.5 -26.5t38.5 -83.5
q0 -31 -16 -60.5t-45.5 -52t-71.5 -36t-94 -13.5q-91 0 -144 36t-53 97zM242 188q25 0 47.5 9.5t39.5 27.5t27 43t10 55t-10 55t-26.5 42t-39.5 26.5t-48 9.5q-26 0 -48.5 -9.5t-39.5 -26.5t-27 -41.5t-10 -55.5q0 -30 10 -55t27.5 -43t40 -27.5t47.5 -9.5zM119 642h226v-36
h-226v36z" />
    <glyph glyph-name="uni00670303" horiz-adv-x="487" 
d="M94 -94q0 -45 41.5 -73t118.5 -28q40 0 73 10.5t56 27.5t35.5 38.5t12.5 44.5q0 40 -28.5 56.5t-82.5 16.5h-103q-8 0 -24.5 1.5t-35.5 6.5q-33 -23 -48 -49t-15 -52zM52 -98q0 32 19 62t52 54v4q-18 11 -30 30t-12 47q0 32 18 54.5t34 33.5v4q-23 20 -41.5 54t-18.5 78
q0 37 13 68t36 53.5t54 35t66 12.5q20 0 36 -3.5t27 -8.5h163v-37h-112q23 -20 38 -51.5t15 -69.5q0 -37 -13 -68t-35.5 -53.5t-53 -35t-65.5 -12.5q-20 0 -41.5 5t-38.5 15q-16 -13 -27.5 -29t-11.5 -40q0 -26 19 -44.5t73 -18.5h103q81 0 119.5 -26.5t38.5 -83.5
q0 -31 -16 -60.5t-45.5 -52t-71.5 -36t-94 -13.5q-91 0 -144 36t-53 97zM242 188q25 0 47.5 9.5t39.5 27.5t27 43t10 55t-10 55t-26.5 42t-39.5 26.5t-48 9.5q-26 0 -48.5 -9.5t-39.5 -26.5t-27 -41.5t-10 -55.5q0 -30 10 -55t27.5 -43t40 -27.5t47.5 -9.5zM108 581
q1 16 5 32t12.5 28.5t21 20.5t30.5 8t33 -8.5t28 -19t25 -19t25 -8.5q16 0 25 14.5t13 40.5h30q-1 -16 -5 -32t-12.5 -28.5t-21 -20.5t-30.5 -8t-33 8.5t-27.5 19t-25 19t-25.5 8.5q-30 0 -38 -55h-30v0z" />
    <glyph glyph-name="hcircumflex" unicode="&#x125;" horiz-adv-x="528" 
d="M92 719h44v-208v-106q38 38 77 62.5t89 24.5q75 0 110 -45t35 -139v-308h-44v302q0 77 -25.5 113.5t-84.5 36.5q-43 0 -78 -22.5t-79 -67.5v-362h-44v719zM-1 748l96 106h42l96 -106h-40l-75 72h-4l-75 -72h-40z" />
    <glyph glyph-name="uni1E25" unicode="&#x1e25;" horiz-adv-x="528" 
d="M92 719h44v-208v-106q38 38 77 62.5t89 24.5q75 0 110 -45t35 -139v-308h-44v302q0 77 -25.5 113.5t-84.5 36.5q-43 0 -78 -22.5t-79 -67.5v-362h-44v719zM282 -194q-17 0 -27.5 11t-10.5 30q0 17 10.5 28t27.5 11t27.5 -11t10.5 -28q0 -19 -10.5 -30t-27.5 -11z" />
    <glyph glyph-name="uni1E2B" unicode="&#x1e2b;" horiz-adv-x="528" 
d="M92 719h44v-208v-106q38 38 77 62.5t89 24.5q75 0 110 -45t35 -139v-308h-44v302q0 77 -25.5 113.5t-84.5 36.5q-43 0 -78 -22.5t-79 -67.5v-362h-44v719zM281 -203q-31 0 -52.5 11.5t-35.5 29t-21.5 38.5t-9.5 40h33q2 -16 8.5 -31.5t17 -27.5t25.5 -19.5t35 -7.5
t35 7.5t25.5 19.5t17 27.5t8.5 31.5h33q-2 -19 -9.5 -40t-21.5 -38.5t-35.5 -29t-52.5 -11.5z" />
    <glyph glyph-name="hbar" unicode="&#x127;" horiz-adv-x="528" 
d="M136 385q38 38 77 62.5t89 24.5q75 0 110 -45t35 -139v-288h-44v282q0 77 -25.5 113.5t-84.5 36.5q-43 0 -78 -22.5t-79 -67.5v-342h-44v581h-77v29l77 4v105h44v-105h190v-33h-190v-90v-106z" />
    <glyph glyph-name="igrave" unicode="&#xec;" horiz-adv-x="229" 
d="M92 480h44v-480h-44v480zM26 708h52l92 -136h-38z" />
    <glyph glyph-name="iacute" unicode="&#xed;" horiz-adv-x="229" 
d="M92 480h44v-480h-44v480zM96 572h-38l92 136h52z" />
    <glyph glyph-name="icircumflex" unicode="&#xee;" horiz-adv-x="229" 
d="M92 480h44v-480h-44v480zM95 708h38l95 -136h-37l-75 99h-4l-75 -99h-37z" />
    <glyph glyph-name="itilde" unicode="&#x129;" horiz-adv-x="229" 
d="M92 480h44v-480h-44v480zM-10 581q1 16 5 32t12.5 28.5t21 20.5t30.5 8t33 -8.5t28 -19t25 -19t25 -8.5q16 0 25 14.5t13 40.5h30q-1 -16 -5 -32t-12.5 -28.5t-21 -20.5t-30.5 -8t-33 8.5t-27.5 19t-25 19t-25.5 8.5q-30 0 -38 -55h-30v0z" />
    <glyph glyph-name="idieresis" unicode="&#xef;" horiz-adv-x="229" 
d="M92 480h44v-480h-44v480zM35 598q-16 0 -26 10.5t-10 26.5q0 15 10 25.5t26 10.5t26.5 -10.5t10.5 -25.5q0 -16 -10.5 -26.5t-26.5 -10.5zM193 598q-16 0 -26.5 10.5t-10.5 26.5q0 15 10.5 25.5t26.5 10.5t26 -10.5t10 -25.5q0 -16 -10 -26.5t-26 -10.5z" />
    <glyph glyph-name="imacron" unicode="&#x12b;" horiz-adv-x="229" 
d="M92 480h44v-480h-44v480zM1 642h226v-36h-226v36z" />
    <glyph glyph-name="uni01D0" unicode="&#x1d0;" horiz-adv-x="229" 
d="M92 480h44v-480h-44v480zM0 708h37l75 -99h4l75 99h37l-95 -136h-38z" />
    <glyph glyph-name="uni1EC9" unicode="&#x1ec9;" horiz-adv-x="229" 
d="M92 480h44v-480h-44v480zM82 577q27 8 45 20.5t18 34.5q0 45 -85 48l4 32q25 -1 47 -6t38.5 -14t26 -22.5t9.5 -32.5q0 -20 -8 -34t-21.5 -24t-30.5 -16.5t-35 -11.5z" />
    <glyph glyph-name="uni1ECB" unicode="&#x1ecb;" horiz-adv-x="229" 
d="M115 596q-17 0 -28.5 11t-11.5 28q0 19 11.5 29.5t28.5 10.5t28.5 -10.5t11.5 -29.5q0 -17 -11.5 -28t-28.5 -11zM92 480h44v-480h-44v480zM115 -194q-17 0 -27.5 11t-10.5 30q0 17 10.5 28t27.5 11t27.5 -11t10.5 -28q0 -19 -10.5 -30t-27.5 -11z" />
    <glyph glyph-name="iogonek" unicode="&#x12f;" horiz-adv-x="229" 
d="M92 480h44v-480q-24 -26 -42.5 -55t-18.5 -61q0 -26 15 -39t34 -13q23 0 43 14l16 -26q-11 -10 -30 -16.5t-35 -6.5q-35 0 -58 20t-23 61q0 38 20 68t42 54h-7v480zM113 596q-16 0 -28 11t-12 28q0 19 12 29.5t28 10.5q17 0 29 -10.5t12 -29.5q0 -17 -12 -28t-29 -11z
" />
    <glyph glyph-name="iogonek.d" horiz-adv-x="229" 
d="M92 480h44v-480q-24 -26 -42.5 -55t-18.5 -61q0 -26 15 -39t34 -13q23 0 43 14l16 -26q-11 -10 -30 -16.5t-35 -6.5q-35 0 -58 20t-23 61q0 38 20 68t42 54h-7v480z" />
    <glyph glyph-name="dotlessi" unicode="&#x131;" horiz-adv-x="229" 
d="M92 480h44v-480h-44v480z" />
    <glyph glyph-name="jcircumflex" unicode="&#x135;" horiz-adv-x="229" 
d="M92 480h45v-569q0 -71 -26 -105.5t-82 -34.5q-17 0 -34 3.5t-28 8.5l11 36q9 -3 22.5 -6.5t27.5 -3.5q40 0 52 29.5t12 75.5v566zM95 708h38l95 -136h-37l-75 99h-4l-75 -99h-37z" />
    <glyph glyph-name="uni0137" unicode="&#x137;" horiz-adv-x="464" 
d="M92 719h44v-530h2l237 291h51l-156 -190l182 -290h-49l-159 257l-108 -126v-131h-44v719zM232 -51q41 -8 62 -25t21 -48q0 -20 -10.5 -34.5t-28 -24.5t-40 -16.5t-46.5 -9.5l-7 30q42 6 67.5 18t25.5 32q0 23 -17.5 33.5t-39.5 15.5l13 29v0z" />
    <glyph glyph-name="kgreenlandic" unicode="&#x138;" horiz-adv-x="464" 
d="M92 480h44v-291h3l236 291h51l-156 -190l182 -290h-49l-159 257l-108 -127v-130h-44v480z" />
    <glyph glyph-name="lacute" unicode="&#x13a;" horiz-adv-x="237" 
d="M92 719h44v-661q0 -16 6 -23.5t15 -7.5h6.5t11.5 2l8 -36q-7 -2 -14 -3.5t-18 -1.5q-59 0 -59 76v655zM109 760h-40l92 106h58z" />
    <glyph glyph-name="lcaron" unicode="&#x13e;" horiz-adv-x="234" 
d="M92 719h44v-661q0 -16 6 -23.5t15 -7.5h6.5t11.5 2l8 -36q-7 -2 -14 -3.5t-18 -1.5q-59 0 -59 76v655zM202 548l-3 206h38v-50l-8 -156h-27z" />
    <glyph glyph-name="ldot" unicode="&#x140;" horiz-adv-x="308" 
d="M92 719h44v-661q0 -16 6 -23.5t15 -7.5h6.5t11.5 2l8 -36q-7 -2 -14 -3.5t-18 -1.5q-59 0 -59 76v655zM225 323q0 22 13 34t30 12t29.5 -12t12.5 -34q0 -21 -12.5 -33t-29.5 -12t-30 12t-13 33z" />
    <glyph glyph-name="uni013C" unicode="&#x13c;" horiz-adv-x="237" 
d="M92 719h44v-661q0 -16 6 -23.5t15 -7.5h6.5t11.5 2l8 -36q-7 -2 -14 -3.5t-18 -1.5q-59 0 -59 76v655zM133 -51q41 -8 62 -25t21 -48q0 -20 -10.5 -34.5t-28 -24.5t-40 -16.5t-46.5 -9.5l-7 30q42 6 67.5 18t25.5 32q0 23 -17.5 33.5t-39.5 15.5l13 29v0z" />
    <glyph glyph-name="uni1E37" unicode="&#x1e37;" horiz-adv-x="237" 
d="M92 719h44v-661q0 -16 6 -23.5t15 -7.5h6.5t11.5 2l8 -36q-7 -2 -14 -3.5t-18 -1.5q-59 0 -59 76v655zM158 -194q-17 0 -27.5 11t-10.5 30q0 17 10.5 28t27.5 11t27.5 -11t10.5 -28q0 -19 -10.5 -30t-27.5 -11z" />
    <glyph glyph-name="uni1E39" unicode="&#x1e39;" horiz-adv-x="237" 
d="M92 719h44v-661q0 -16 6 -23.5t15 -7.5h6.5t11.5 2l8 -36q-7 -2 -14 -3.5t-18 -1.5q-59 0 -59 76v655zM0 868h226v-36h-226v36zM158 -194q-17 0 -27.5 11t-10.5 30q0 17 10.5 28t27.5 11t27.5 -11t10.5 -28q0 -19 -10.5 -30t-27.5 -11z" />
    <glyph glyph-name="uni1E3B" unicode="&#x1e3b;" horiz-adv-x="237" 
d="M92 719h44v-661q0 -16 6 -23.5t15 -7.5h6.5t11.5 2l8 -36q-7 -2 -14 -3.5t-18 -1.5q-59 0 -59 76v655zM271 -160h-228v36h228v-36z" />
    <glyph glyph-name="lslash" unicode="&#x142;" horiz-adv-x="239" 
d="M138 389v-331q0 -31 20 -31h7.5t10.5 2l8 -36q-7 -2 -14 -3.5t-18 -1.5q-59 0 -59 76v300l-65 -43v42l65 43v313h45v-287l73 48v-43z" />
    <glyph glyph-name="uni1E43" unicode="&#x1e43;" horiz-adv-x="812" 
d="M92 480h38l4 -74h3q32 37 71.5 61.5t79.5 24.5q58 0 89 -26.5t44 -71.5q42 45 81.5 71.5t81.5 26.5q144 0 144 -184v-308h-45v302q0 77 -26 113.5t-81 36.5q-65 0 -144 -90v-362h-44v302q0 77 -26 113.5t-82 36.5q-65 0 -144 -90v-362h-44v480zM419 -194q-17 0 -27.5 11
t-10.5 30q0 17 10.5 28t27.5 11t27.5 -11t10.5 -28q0 -19 -10.5 -30t-27.5 -11z" />
    <glyph glyph-name="nacute" unicode="&#x144;" horiz-adv-x="532" 
d="M92 480h38l4 -74h3q37 37 76 61.5t89 24.5q75 0 110 -45t35 -139v-308h-44v302q0 77 -25.5 113.5t-84.5 36.5q-43 0 -78 -22.5t-79 -67.5v-362h-44v480zM265 572h-38l92 136h52z" />
    <glyph glyph-name="ncaron" unicode="&#x148;" horiz-adv-x="532" 
d="M92 480h38l4 -74h3q37 37 76 61.5t89 24.5q75 0 110 -45t35 -139v-308h-44v302q0 77 -25.5 113.5t-84.5 36.5q-43 0 -78 -22.5t-79 -67.5v-362h-44v480zM169 708h37l75 -99h4l75 99h37l-95 -136h-38z" />
    <glyph glyph-name="ntilde" unicode="&#xf1;" horiz-adv-x="532" 
d="M92 480h38l4 -74h3q37 37 76 61.5t89 24.5q75 0 110 -45t35 -139v-308h-44v302q0 77 -25.5 113.5t-84.5 36.5q-43 0 -78 -22.5t-79 -67.5v-362h-44v480zM159 581q1 16 5 32t12.5 28.5t21 20.5t30.5 8t33 -8.5t28 -19t25 -19t25 -8.5q16 0 25 14.5t13 40.5h30
q-1 -16 -5 -32t-12.5 -28.5t-21 -20.5t-30.5 -8t-33 8.5t-27.5 19t-25 19t-25.5 8.5q-30 0 -38 -55h-30v0z" />
    <glyph glyph-name="uni0146" unicode="&#x146;" horiz-adv-x="532" 
d="M92 480h38l4 -74h3q37 37 76 61.5t89 24.5q75 0 110 -45t35 -139v-308h-44v302q0 77 -25.5 113.5t-84.5 36.5q-43 0 -78 -22.5t-79 -67.5v-362h-44v480zM247 -51q41 -8 62 -25t21 -48q0 -20 -10.5 -34.5t-28 -24.5t-40 -16.5t-46.5 -9.5l-7 30q42 6 67.5 18t25.5 32
q0 23 -17.5 33.5t-39.5 15.5l13 29v0z" />
    <glyph glyph-name="uni1E45" unicode="&#x1e45;" horiz-adv-x="532" 
d="M92 480h38l4 -74h3q37 37 76 61.5t89 24.5q75 0 110 -45t35 -139v-308h-44v302q0 77 -25.5 113.5t-84.5 36.5q-43 0 -78 -22.5t-79 -67.5v-362h-44v480zM283 596q-17 0 -27.5 11t-10.5 30q0 17 10.5 28t27.5 11t27.5 -11t10.5 -28q0 -19 -10.5 -30t-27.5 -11z" />
    <glyph glyph-name="uni1E47" unicode="&#x1e47;" horiz-adv-x="532" 
d="M92 480h38l4 -74h3q37 37 76 61.5t89 24.5q75 0 110 -45t35 -139v-308h-44v302q0 77 -25.5 113.5t-84.5 36.5q-43 0 -78 -22.5t-79 -67.5v-362h-44v480zM273 -194q-17 0 -27.5 11t-10.5 30q0 17 10.5 28t27.5 11t27.5 -11t10.5 -28q0 -19 -10.5 -30t-27.5 -11z" />
    <glyph glyph-name="uni1E49" unicode="&#x1e49;" horiz-adv-x="532" 
d="M92 480h38l4 -74h3q37 37 76 61.5t89 24.5q75 0 110 -45t35 -139v-308h-44v302q0 77 -25.5 113.5t-84.5 36.5q-43 0 -78 -22.5t-79 -67.5v-362h-44v480zM385 -160h-228v36h228v-36z" />
    <glyph glyph-name="napostrophe" unicode="&#x149;" horiz-adv-x="729" 
d="M58 500q33 27 50 54t17 70q-2 -1 -8 -1q-14 0 -26.5 9t-12.5 28t11 29.5t28 10.5q20 0 32.5 -17.5t12.5 -49.5q0 -54 -22.5 -92t-63.5 -64zM282 480h38l4 -74h3q37 37 76 61.5t89 24.5q75 0 110 -45t35 -139v-308h-44v302q0 77 -25.5 113.5t-84.5 36.5q-43 0 -78 -22.5
t-79 -67.5v-362h-44v480z" />
    <glyph glyph-name="ograve" unicode="&#xf2;" horiz-adv-x="535" 
d="M52 239q0 60 17.5 107.5t47 79.5t68.5 49t82 17t82.5 -17t69 -49t47 -79.5t17.5 -107.5t-17.5 -106.5t-47 -78.5t-69 -49t-82.5 -17t-82 17t-68.5 49t-47 78.5t-17.5 106.5zM98 239q0 -47 13 -86t35.5 -67t53.5 -43.5t67 -15.5t67.5 15.5t54 43.5t35.5 67t13 86
q0 48 -13 87t-35.5 67.5t-54 44t-67.5 15.5t-67 -15.5t-53.5 -44t-35.5 -67.5t-13 -87zM179 708h52l92 -136h-38z" />
    <glyph glyph-name="oacute" unicode="&#xf3;" horiz-adv-x="535" 
d="M52 239q0 60 17.5 107.5t47 79.5t68.5 49t82 17t82.5 -17t69 -49t47 -79.5t17.5 -107.5t-17.5 -106.5t-47 -78.5t-69 -49t-82.5 -17t-82 17t-68.5 49t-47 78.5t-17.5 106.5zM98 239q0 -47 13 -86t35.5 -67t53.5 -43.5t67 -15.5t67.5 15.5t54 43.5t35.5 67t13 86
q0 48 -13 87t-35.5 67.5t-54 44t-67.5 15.5t-67 -15.5t-53.5 -44t-35.5 -67.5t-13 -87zM249 572h-38l92 136h52z" />
    <glyph glyph-name="ocircumflex" unicode="&#xf4;" horiz-adv-x="535" 
d="M52 239q0 60 17.5 107.5t47 79.5t68.5 49t82 17t82.5 -17t69 -49t47 -79.5t17.5 -107.5t-17.5 -106.5t-47 -78.5t-69 -49t-82.5 -17t-82 17t-68.5 49t-47 78.5t-17.5 106.5zM98 239q0 -47 13 -86t35.5 -67t53.5 -43.5t67 -15.5t67.5 15.5t54 43.5t35.5 67t13 86
q0 48 -13 87t-35.5 67.5t-54 44t-67.5 15.5t-67 -15.5t-53.5 -44t-35.5 -67.5t-13 -87zM248 708h38l95 -136h-37l-75 99h-4l-75 -99h-37z" />
    <glyph glyph-name="otilde" unicode="&#xf5;" horiz-adv-x="535" 
d="M52 239q0 60 17.5 107.5t47 79.5t68.5 49t82 17t82.5 -17t69 -49t47 -79.5t17.5 -107.5t-17.5 -106.5t-47 -78.5t-69 -49t-82.5 -17t-82 17t-68.5 49t-47 78.5t-17.5 106.5zM98 239q0 -47 13 -86t35.5 -67t53.5 -43.5t67 -15.5t67.5 15.5t54 43.5t35.5 67t13 86
q0 48 -13 87t-35.5 67.5t-54 44t-67.5 15.5t-67 -15.5t-53.5 -44t-35.5 -67.5t-13 -87zM143 581q1 16 5 32t12.5 28.5t21 20.5t30.5 8t33 -8.5t28 -19t25 -19t25 -8.5q16 0 25 14.5t13 40.5h30q-1 -16 -5 -32t-12.5 -28.5t-21 -20.5t-30.5 -8t-33 8.5t-27.5 19t-25 19
t-25.5 8.5q-30 0 -38 -55h-30v0z" />
    <glyph glyph-name="odieresis" unicode="&#xf6;" horiz-adv-x="535" 
d="M52 239q0 60 17.5 107.5t47 79.5t68.5 49t82 17t82.5 -17t69 -49t47 -79.5t17.5 -107.5t-17.5 -106.5t-47 -78.5t-69 -49t-82.5 -17t-82 17t-68.5 49t-47 78.5t-17.5 106.5zM98 239q0 -47 13 -86t35.5 -67t53.5 -43.5t67 -15.5t67.5 15.5t54 43.5t35.5 67t13 86
q0 48 -13 87t-35.5 67.5t-54 44t-67.5 15.5t-67 -15.5t-53.5 -44t-35.5 -67.5t-13 -87zM188 598q-16 0 -26 10.5t-10 26.5q0 15 10 25.5t26 10.5t26.5 -10.5t10.5 -25.5q0 -16 -10.5 -26.5t-26.5 -10.5zM346 598q-16 0 -26.5 10.5t-10.5 26.5q0 15 10.5 25.5t26.5 10.5
t26 -10.5t10 -25.5q0 -16 -10 -26.5t-26 -10.5z" />
    <glyph glyph-name="omacron" unicode="&#x14d;" horiz-adv-x="535" 
d="M52 239q0 60 17.5 107.5t47 79.5t68.5 49t82 17t82.5 -17t69 -49t47 -79.5t17.5 -107.5t-17.5 -106.5t-47 -78.5t-69 -49t-82.5 -17t-82 17t-68.5 49t-47 78.5t-17.5 106.5zM98 239q0 -47 13 -86t35.5 -67t53.5 -43.5t67 -15.5t67.5 15.5t54 43.5t35.5 67t13 86
q0 48 -13 87t-35.5 67.5t-54 44t-67.5 15.5t-67 -15.5t-53.5 -44t-35.5 -67.5t-13 -87zM154 642h226v-36h-226v36z" />
    <glyph glyph-name="ohungarumlaut" unicode="&#x151;" horiz-adv-x="535" 
d="M52 239q0 60 17.5 107.5t47 79.5t68.5 49t82 17t82.5 -17t69 -49t47 -79.5t17.5 -107.5t-17.5 -106.5t-47 -78.5t-69 -49t-82.5 -17t-82 17t-68.5 49t-47 78.5t-17.5 106.5zM98 239q0 -47 13 -86t35.5 -67t53.5 -43.5t67 -15.5t67.5 15.5t54 43.5t35.5 67t13 86
q0 48 -13 87t-35.5 67.5t-54 44t-67.5 15.5t-67 -15.5t-53.5 -44t-35.5 -67.5t-13 -87zM257 708h45l-83 -138h-34zM390 708h46l-84 -138h-34z" />
    <glyph glyph-name="uni01D2" unicode="&#x1d2;" horiz-adv-x="535" 
d="M52 239q0 60 17.5 107.5t47 79.5t68.5 49t82 17t82.5 -17t69 -49t47 -79.5t17.5 -107.5t-17.5 -106.5t-47 -78.5t-69 -49t-82.5 -17t-82 17t-68.5 49t-47 78.5t-17.5 106.5zM98 239q0 -47 13 -86t35.5 -67t53.5 -43.5t67 -15.5t67.5 15.5t54 43.5t35.5 67t13 86
q0 48 -13 87t-35.5 67.5t-54 44t-67.5 15.5t-67 -15.5t-53.5 -44t-35.5 -67.5t-13 -87zM153 708h37l75 -99h4l75 99h37l-95 -136h-38z" />
    <glyph glyph-name="uni1ECD" unicode="&#x1ecd;" horiz-adv-x="535" 
d="M52 239q0 60 17.5 107.5t47 79.5t68.5 49t82 17t82.5 -17t69 -49t47 -79.5t17.5 -107.5t-17.5 -106.5t-47 -78.5t-69 -49t-82.5 -17t-82 17t-68.5 49t-47 78.5t-17.5 106.5zM98 239q0 -47 13 -86t35.5 -67t53.5 -43.5t67 -15.5t67.5 15.5t54 43.5t35.5 67t13 86
q0 48 -13 87t-35.5 67.5t-54 44t-67.5 15.5t-67 -15.5t-53.5 -44t-35.5 -67.5t-13 -87zM268 -194q-17 0 -27.5 11t-10.5 30q0 17 10.5 28t27.5 11t27.5 -11t10.5 -28q0 -19 -10.5 -30t-27.5 -11z" />
    <glyph glyph-name="uni1ECF" unicode="&#x1ecf;" horiz-adv-x="535" 
d="M52 239q0 60 17.5 107.5t47 79.5t68.5 49t82 17t82.5 -17t69 -49t47 -79.5t17.5 -107.5t-17.5 -106.5t-47 -78.5t-69 -49t-82.5 -17t-82 17t-68.5 49t-47 78.5t-17.5 106.5zM98 239q0 -47 13 -86t35.5 -67t53.5 -43.5t67 -15.5t67.5 15.5t54 43.5t35.5 67t13 86
q0 48 -13 87t-35.5 67.5t-54 44t-67.5 15.5t-67 -15.5t-53.5 -44t-35.5 -67.5t-13 -87zM235 577q27 8 45 20.5t18 34.5q0 45 -85 48l4 32q25 -1 47 -6t38.5 -14t26 -22.5t9.5 -32.5q0 -20 -8 -34t-21.5 -24t-30.5 -16.5t-35 -11.5z" />
    <glyph glyph-name="uni1ED1" unicode="&#x1ed1;" horiz-adv-x="535" 
d="M52 239q0 60 17.5 107.5t47 79.5t68.5 49t82 17t82.5 -17t69 -49t47 -79.5t17.5 -107.5t-17.5 -106.5t-47 -78.5t-69 -49t-82.5 -17t-82 17t-68.5 49t-47 78.5t-17.5 106.5zM98 239q0 -47 13 -86t35.5 -67t53.5 -43.5t67 -15.5t67.5 15.5t54 43.5t35.5 67t13 86
q0 48 -13 87t-35.5 67.5t-54 44t-67.5 15.5t-67 -15.5t-53.5 -44t-35.5 -67.5t-13 -87zM248 686h38l84 -114h-36l-65 78h-4l-65 -78h-36zM422 748h46l-90 -111h-33z" />
    <glyph glyph-name="uni1ED3" unicode="&#x1ed3;" horiz-adv-x="535" 
d="M52 239q0 60 17.5 107.5t47 79.5t68.5 49t82 17t82.5 -17t69 -49t47 -79.5t17.5 -107.5t-17.5 -106.5t-47 -78.5t-69 -49t-82.5 -17t-82 17t-68.5 49t-47 78.5t-17.5 106.5zM98 239q0 -47 13 -86t35.5 -67t53.5 -43.5t67 -15.5t67.5 15.5t54 43.5t35.5 67t13 86
q0 48 -13 87t-35.5 67.5t-54 44t-67.5 15.5t-67 -15.5t-53.5 -44t-35.5 -67.5t-13 -87zM248 686h38l84 -114h-36l-65 78h-4l-65 -78h-36zM440 637h-33l-91 111h47z" />
    <glyph glyph-name="uni1ED5" unicode="&#x1ed5;" horiz-adv-x="535" 
d="M52 239q0 60 17.5 107.5t47 79.5t68.5 49t82 17t82.5 -17t69 -49t47 -79.5t17.5 -107.5t-17.5 -106.5t-47 -78.5t-69 -49t-82.5 -17t-82 17t-68.5 49t-47 78.5t-17.5 106.5zM98 239q0 -47 13 -86t35.5 -67t53.5 -43.5t67 -15.5t67.5 15.5t54 43.5t35.5 67t13 86
q0 48 -13 87t-35.5 67.5t-54 44t-67.5 15.5t-67 -15.5t-53.5 -44t-35.5 -67.5t-13 -87zM248 686h38l84 -114h-36l-65 78h-4l-65 -78h-36zM362 653q21 8 35 18.5t14 27.5q0 43 -71 46l3 29q45 -2 75.5 -18t30.5 -52q0 -17 -7 -29.5t-18.5 -21.5t-25.5 -15t-28 -10z" />
    <glyph glyph-name="uni1ED7" unicode="&#x1ed7;" horiz-adv-x="535" 
d="M52 239q0 60 17.5 107.5t47 79.5t68.5 49t82 17t82.5 -17t69 -49t47 -79.5t17.5 -107.5t-17.5 -106.5t-47 -78.5t-69 -49t-82.5 -17t-82 17t-68.5 49t-47 78.5t-17.5 106.5zM98 239q0 -47 13 -86t35.5 -67t53.5 -43.5t67 -15.5t67.5 15.5t54 43.5t35.5 67t13 86
q0 48 -13 87t-35.5 67.5t-54 44t-67.5 15.5t-67 -15.5t-53.5 -44t-35.5 -67.5t-13 -87zM247 670h40l91 -100h-36l-73 69h-4l-73 -69h-36zM146 706q1 14 5.5 28t13 25t21.5 17.5t30 6.5q18 0 31.5 -7t24.5 -15.5t22 -15.5t24 -7q34 0 42 45h28q-1 -14 -5.5 -28t-13 -25
t-21.5 -17.5t-30 -6.5q-18 0 -31.5 7t-25 15.5t-22 15.5t-23.5 7q-35 0 -42 -45h-28z" />
    <glyph glyph-name="uni1ED9" unicode="&#x1ed9;" horiz-adv-x="535" 
d="M52 239q0 60 17.5 107.5t47 79.5t68.5 49t82 17t82.5 -17t69 -49t47 -79.5t17.5 -107.5t-17.5 -106.5t-47 -78.5t-69 -49t-82.5 -17t-82 17t-68.5 49t-47 78.5t-17.5 106.5zM98 239q0 -47 13 -86t35.5 -67t53.5 -43.5t67 -15.5t67.5 15.5t54 43.5t35.5 67t13 86
q0 48 -13 87t-35.5 67.5t-54 44t-67.5 15.5t-67 -15.5t-53.5 -44t-35.5 -67.5t-13 -87zM248 708h38l95 -136h-37l-75 99h-4l-75 -99h-37zM268 -194q-17 0 -27.5 11t-10.5 30q0 17 10.5 28t27.5 11t27.5 -11t10.5 -28q0 -19 -10.5 -30t-27.5 -11z" />
    <glyph glyph-name="oslash" unicode="&#xf8;" horiz-adv-x="535" 
d="M153 76q47 -50 114 -50q36 0 67.5 15.5t54.5 43.5t36 67t13 86q0 82 -36 138zM382 403q-46 51 -115 51q-36 0 -67.5 -15.5t-54 -44t-35.5 -68t-13 -86.5q0 -81 36 -137zM431 411q24 -32 38 -75t14 -97q0 -60 -17.5 -106.5t-47 -78.5t-69 -49t-82.5 -17q-82 0 -141 56
l-54 -66l-26 21l58 70q-24 32 -38 74t-14 96q0 60 17.5 107.5t47 79.5t68.5 49t82 17q40 0 76.5 -14t65.5 -42l54 65l26 -21z" />
    <glyph glyph-name="oe" unicode="&#x153;" horiz-adv-x="848" 
d="M98 239q0 -47 12.5 -86t34.5 -67t52.5 -43.5t65.5 -15.5q36 0 66.5 15.5t52 43.5t34 67t12.5 86q0 48 -12.5 87t-34 67.5t-52 44t-66.5 15.5q-35 0 -65.5 -15.5t-52.5 -44t-34.5 -67.5t-12.5 -87zM52 239q0 60 17 107.5t46.5 79.5t67.5 49t80 17q58 0 109 -35.5
t77 -106.5q26 66 73.5 104t105.5 38q85 0 134 -58t49 -164q0 -18 -3 -36h-337q0 -45 13.5 -83t36.5 -65.5t55 -43t68 -15.5q39 0 70 11.5t58 31.5l19 -35q-29 -17 -63.5 -32t-88.5 -15q-63 0 -113 38t-76 103q-28 -70 -76 -105.5t-111 -35.5q-42 0 -80 17t-67.5 49
t-46.5 78.5t-17 106.5zM769 268q0 93 -38.5 139.5t-102.5 46.5q-30 0 -57 -13.5t-48 -38t-34.5 -59t-17.5 -75.5h298z" />
    <glyph glyph-name="ohorn" unicode="&#x1a1;" horiz-adv-x="535" 
d="M267 27q36 0 67.5 15.5t54 43.5t35.5 67t13 86q0 48 -13 87t-35.5 67.5t-54 44t-67.5 15.5t-67 -15.5t-53.5 -44t-35.5 -67.5t-13 -87q0 -47 13 -86t35.5 -67t53.5 -43.5t67 -15.5zM466 598q20 -28 20 -56q0 -21 -7.5 -37t-20 -27t-29 -18.5t-33.5 -12.5q39 -32 63 -84
t24 -124q0 -60 -17.5 -106.5t-47 -78.5t-69 -49t-82.5 -17t-82 17t-68.5 49t-47 78.5t-17.5 106.5t17.5 107.5t47 79.5t68.5 49t82 17q50 0 92 -21q87 11 87 68q0 19 -15 39z" />
    <glyph glyph-name="uni1EDB" unicode="&#x1edb;" horiz-adv-x="535" 
d="M267 27q36 0 67.5 15.5t54 43.5t35.5 67t13 86q0 48 -13 87t-35.5 67.5t-54 44t-67.5 15.5t-67 -15.5t-53.5 -44t-35.5 -67.5t-13 -87q0 -47 13 -86t35.5 -67t53.5 -43.5t67 -15.5zM466 598q20 -28 20 -56q0 -21 -7.5 -37t-20 -27t-29 -18.5t-33.5 -12.5q39 -32 63 -84
t24 -124q0 -60 -17.5 -106.5t-47 -78.5t-69 -49t-82.5 -17t-82 17t-68.5 49t-47 78.5t-17.5 106.5t17.5 107.5t47 79.5t68.5 49t82 17q50 0 92 -21q87 11 87 68q0 19 -15 39zM249 572h-38l92 136h52z" />
    <glyph glyph-name="uni1EDD" unicode="&#x1edd;" horiz-adv-x="535" 
d="M267 27q36 0 67.5 15.5t54 43.5t35.5 67t13 86q0 48 -13 87t-35.5 67.5t-54 44t-67.5 15.5t-67 -15.5t-53.5 -44t-35.5 -67.5t-13 -87q0 -47 13 -86t35.5 -67t53.5 -43.5t67 -15.5zM466 598q20 -28 20 -56q0 -21 -7.5 -37t-20 -27t-29 -18.5t-33.5 -12.5q39 -32 63 -84
t24 -124q0 -60 -17.5 -106.5t-47 -78.5t-69 -49t-82.5 -17t-82 17t-68.5 49t-47 78.5t-17.5 106.5t17.5 107.5t47 79.5t68.5 49t82 17q50 0 92 -21q87 11 87 68q0 19 -15 39zM179 708h52l92 -136h-38z" />
    <glyph glyph-name="uni1EDF" unicode="&#x1edf;" horiz-adv-x="535" 
d="M267 27q36 0 67.5 15.5t54 43.5t35.5 67t13 86q0 48 -13 87t-35.5 67.5t-54 44t-67.5 15.5t-67 -15.5t-53.5 -44t-35.5 -67.5t-13 -87q0 -47 13 -86t35.5 -67t53.5 -43.5t67 -15.5zM466 598q20 -28 20 -56q0 -21 -7.5 -37t-20 -27t-29 -18.5t-33.5 -12.5q39 -32 63 -84
t24 -124q0 -60 -17.5 -106.5t-47 -78.5t-69 -49t-82.5 -17t-82 17t-68.5 49t-47 78.5t-17.5 106.5t17.5 107.5t47 79.5t68.5 49t82 17q50 0 92 -21q87 11 87 68q0 19 -15 39zM235 577q27 8 45 20.5t18 34.5q0 45 -85 48l4 32q25 -1 47 -6t38.5 -14t26 -22.5t9.5 -32.5
q0 -20 -8 -34t-21.5 -24t-30.5 -16.5t-35 -11.5z" />
    <glyph glyph-name="uni1EE1" unicode="&#x1ee1;" horiz-adv-x="535" 
d="M267 27q36 0 67.5 15.5t54 43.5t35.5 67t13 86q0 48 -13 87t-35.5 67.5t-54 44t-67.5 15.5t-67 -15.5t-53.5 -44t-35.5 -67.5t-13 -87q0 -47 13 -86t35.5 -67t53.5 -43.5t67 -15.5zM466 598q20 -28 20 -56q0 -21 -7.5 -37t-20 -27t-29 -18.5t-33.5 -12.5q39 -32 63 -84
t24 -124q0 -60 -17.5 -106.5t-47 -78.5t-69 -49t-82.5 -17t-82 17t-68.5 49t-47 78.5t-17.5 106.5t17.5 107.5t47 79.5t68.5 49t82 17q50 0 92 -21q87 11 87 68q0 19 -15 39zM143 581q1 16 5 32t12.5 28.5t21 20.5t30.5 8t33 -8.5t28 -19t25 -19t25 -8.5q16 0 25 14.5
t13 40.5h30q-1 -16 -5 -32t-12.5 -28.5t-21 -20.5t-30.5 -8t-33 8.5t-27.5 19t-25 19t-25.5 8.5q-30 0 -38 -55h-30v0z" />
    <glyph glyph-name="uni1EE3" unicode="&#x1ee3;" horiz-adv-x="535" 
d="M267 27q36 0 67.5 15.5t54 43.5t35.5 67t13 86q0 48 -13 87t-35.5 67.5t-54 44t-67.5 15.5t-67 -15.5t-53.5 -44t-35.5 -67.5t-13 -87q0 -47 13 -86t35.5 -67t53.5 -43.5t67 -15.5zM466 598q20 -28 20 -56q0 -21 -7.5 -37t-20 -27t-29 -18.5t-33.5 -12.5q39 -32 63 -84
t24 -124q0 -60 -17.5 -106.5t-47 -78.5t-69 -49t-82.5 -17t-82 17t-68.5 49t-47 78.5t-17.5 106.5t17.5 107.5t47 79.5t68.5 49t82 17q50 0 92 -21q87 11 87 68q0 19 -15 39zM268 -194q-17 0 -27.5 11t-10.5 30q0 17 10.5 28t27.5 11t27.5 -11t10.5 -28q0 -19 -10.5 -30
t-27.5 -11z" />
    <glyph glyph-name="uni01EB" unicode="&#x1eb;" horiz-adv-x="535" 
d="M213 -122q0 19 5.5 36t14 31t18.5 25t18 18q-45 1 -84.5 18t-69 49.5t-46.5 78.5t-17 105q0 60 17.5 107.5t47 79.5t68.5 49t82 17t82.5 -17t69 -49t47 -79.5t17.5 -107.5q0 -51 -11.5 -90t-32 -68.5t-49.5 -50.5t-64 -37q-33 -15 -54 -46t-21 -63q0 -26 15 -39t34 -13
q25 0 43 14l16 -26q-11 -10 -29.5 -16.5t-35.5 -6.5q-34 0 -57.5 20t-23.5 61zM98 239q0 -47 13 -86t35.5 -67t53.5 -43.5t67 -15.5t67.5 15.5t54 43.5t35.5 67t13 86q0 48 -13 87t-35.5 67.5t-54 44t-67.5 15.5t-67 -15.5t-53.5 -44t-35.5 -67.5t-13 -87z" />
    <glyph glyph-name="racute" unicode="&#x155;" horiz-adv-x="317" 
d="M92 480h38l4 -89h3q24 45 58.5 73t77.5 28q14 0 25 -2t23 -8l-10 -40q-12 5 -21 6.5t-23 1.5q-32 0 -67.5 -27.5t-63.5 -95.5v-327h-44v480zM182 572h-38l92 136h52z" />
    <glyph glyph-name="uni0157" unicode="&#x157;" horiz-adv-x="317" 
d="M92 480h38l4 -89h3q24 45 58.5 73t77.5 28q14 0 25 -2t23 -8l-10 -40q-12 5 -21 6.5t-23 1.5q-32 0 -67.5 -27.5t-63.5 -95.5v-327h-44v480zM86 -51q41 -8 62 -25t21 -48q0 -20 -10.5 -34.5t-28 -24.5t-40 -16.5t-46.5 -9.5l-7 30q42 6 67.5 18t25.5 32q0 23 -17.5 33.5
t-39.5 15.5l13 29v0z" />
    <glyph glyph-name="rcaron" unicode="&#x159;" horiz-adv-x="317" 
d="M92 480h38l4 -89h3q24 45 58.5 73t77.5 28q14 0 25 -2t23 -8l-10 -40q-12 5 -21 6.5t-23 1.5q-32 0 -67.5 -27.5t-63.5 -95.5v-327h-44v480zM86 708h37l75 -99h4l75 99h37l-95 -136h-38z" />
    <glyph glyph-name="uni1E5B" unicode="&#x1e5b;" horiz-adv-x="317" 
d="M92 480h38l4 -89h3q24 45 58.5 73t77.5 28q14 0 25 -2t23 -8l-10 -40q-12 5 -21 6.5t-23 1.5q-32 0 -67.5 -27.5t-63.5 -95.5v-327h-44v480zM112 -194q-17 0 -27.5 11t-10.5 30q0 17 10.5 28t27.5 11t27.5 -11t10.5 -28q0 -19 -10.5 -30t-27.5 -11z" />
    <glyph glyph-name="uni1E5D" unicode="&#x1e5d;" horiz-adv-x="317" 
d="M92 480h38l4 -89h3q24 45 58.5 73t77.5 28q14 0 25 -2t23 -8l-10 -40q-12 5 -21 6.5t-23 1.5q-32 0 -67.5 -27.5t-63.5 -95.5v-327h-44v480zM87 642h226v-36h-226v36zM112 -194q-17 0 -27.5 11t-10.5 30q0 17 10.5 28t27.5 11t27.5 -11t10.5 -28q0 -19 -10.5 -30
t-27.5 -11z" />
    <glyph glyph-name="uni1E5F" unicode="&#x1e5f;" horiz-adv-x="317" 
d="M92 480h38l4 -89h3q24 45 58.5 73t77.5 28q14 0 25 -2t23 -8l-10 -40q-12 5 -21 6.5t-23 1.5q-32 0 -67.5 -27.5t-63.5 -95.5v-327h-44v480zM224 -160h-228v36h228v-36z" />
    <glyph glyph-name="sacute" unicode="&#x15b;" horiz-adv-x="405" 
d="M58 87q31 -26 66 -43.5t87 -17.5q57 0 85.5 28.5t28.5 66.5q0 22 -10.5 39t-27.5 29t-37.5 21t-41.5 17l-54.5 21t-49.5 26.5t-35.5 37t-13.5 52.5q0 26 10 49.5t30 41t48.5 27.5t66.5 10t74.5 -14t62.5 -36l-24 -31q-24 18 -51 30.5t-64 12.5q-28 0 -48 -7.5
t-33.5 -19.5t-20 -28t-6.5 -32q0 -20 9.5 -34.5t25.5 -26t36.5 -20l41.5 -16.5l56 -22t50.5 -27t36.5 -39.5t14 -58.5q0 -27 -10.5 -51.5t-31.5 -43t-51 -29.5t-69 -11q-54 0 -99 19.5t-77 46.5zM192 572h-38l92 136h52z" />
    <glyph glyph-name="scircumflex" unicode="&#x15d;" horiz-adv-x="405" 
d="M58 87q31 -26 66 -43.5t87 -17.5q57 0 85.5 28.5t28.5 66.5q0 22 -10.5 39t-27.5 29t-37.5 21t-41.5 17l-54.5 21t-49.5 26.5t-35.5 37t-13.5 52.5q0 26 10 49.5t30 41t48.5 27.5t66.5 10t74.5 -14t62.5 -36l-24 -31q-24 18 -51 30.5t-64 12.5q-28 0 -48 -7.5
t-33.5 -19.5t-20 -28t-6.5 -32q0 -20 9.5 -34.5t25.5 -26t36.5 -20l41.5 -16.5l56 -22t50.5 -27t36.5 -39.5t14 -58.5q0 -27 -10.5 -51.5t-31.5 -43t-51 -29.5t-69 -11q-54 0 -99 19.5t-77 46.5zM191 708h38l95 -136h-37l-75 99h-4l-75 -99h-37z" />
    <glyph glyph-name="scaron" unicode="&#x161;" horiz-adv-x="405" 
d="M58 87q31 -26 66 -43.5t87 -17.5q57 0 85.5 28.5t28.5 66.5q0 22 -10.5 39t-27.5 29t-37.5 21t-41.5 17l-54.5 21t-49.5 26.5t-35.5 37t-13.5 52.5q0 26 10 49.5t30 41t48.5 27.5t66.5 10t74.5 -14t62.5 -36l-24 -31q-24 18 -51 30.5t-64 12.5q-28 0 -48 -7.5
t-33.5 -19.5t-20 -28t-6.5 -32q0 -20 9.5 -34.5t25.5 -26t36.5 -20l41.5 -16.5l56 -22t50.5 -27t36.5 -39.5t14 -58.5q0 -27 -10.5 -51.5t-31.5 -43t-51 -29.5t-69 -11q-54 0 -99 19.5t-77 46.5zM96 708h37l75 -99h4l75 99h37l-95 -136h-38z" />
    <glyph glyph-name="uni015F" unicode="&#x15f;" horiz-adv-x="405" 
d="M58 87q31 -26 66 -43.5t87 -17.5q57 0 85.5 28.5t28.5 66.5q0 22 -10.5 39t-27.5 29t-37.5 21t-41.5 17l-54.5 21t-49.5 26.5t-35.5 37t-13.5 52.5q0 26 10 49.5t30 41t48.5 27.5t66.5 10t74.5 -14t62.5 -36l-24 -31q-24 18 -51 30.5t-64 12.5q-28 0 -48 -7.5
t-33.5 -19.5t-20 -28t-6.5 -32q0 -20 9.5 -34.5t25.5 -26t36.5 -20l41.5 -16.5l56 -22t50.5 -27t36.5 -39.5t14 -58.5q0 -27 -10.5 -51.5t-31.5 -43t-51 -29.5t-69 -11q-54 0 -99 19.5t-77 46.5zM206 2h35l-29 -56q24 -8 42 -23.5t18 -45.5q0 -20 -10.5 -34.5t-28 -24.5
t-40 -16.5t-46.5 -9.5l-7 30q42 6 67.5 18t25.5 33q0 23 -19 34t-48 19z" />
    <glyph glyph-name="uni0219" unicode="&#x219;" horiz-adv-x="405" 
d="M58 87q31 -26 66 -43.5t87 -17.5q57 0 85.5 28.5t28.5 66.5q0 22 -10.5 39t-27.5 29t-37.5 21t-41.5 17l-54.5 21t-49.5 26.5t-35.5 37t-13.5 52.5q0 26 10 49.5t30 41t48.5 27.5t66.5 10t74.5 -14t62.5 -36l-24 -31q-24 18 -51 30.5t-64 12.5q-28 0 -48 -7.5
t-33.5 -19.5t-20 -28t-6.5 -32q0 -20 9.5 -34.5t25.5 -26t36.5 -20l41.5 -16.5l56 -22t50.5 -27t36.5 -39.5t14 -58.5q0 -27 -10.5 -51.5t-31.5 -43t-51 -29.5t-69 -11q-54 0 -99 19.5t-77 46.5zM192 -51q41 -8 62 -25t21 -48q0 -20 -10.5 -34.5t-28 -24.5t-40 -16.5
t-46.5 -9.5l-7 30q42 6 67.5 18t25.5 32q0 23 -17.5 33.5t-39.5 15.5l13 29v0z" />
    <glyph glyph-name="uni1E61" unicode="&#x1e61;" horiz-adv-x="405" 
d="M58 87q31 -26 66 -43.5t87 -17.5q57 0 85.5 28.5t28.5 66.5q0 22 -10.5 39t-27.5 29t-37.5 21t-41.5 17l-54.5 21t-49.5 26.5t-35.5 37t-13.5 52.5q0 26 10 49.5t30 41t48.5 27.5t66.5 10t74.5 -14t62.5 -36l-24 -31q-24 18 -51 30.5t-64 12.5q-28 0 -48 -7.5
t-33.5 -19.5t-20 -28t-6.5 -32q0 -20 9.5 -34.5t25.5 -26t36.5 -20l41.5 -16.5l56 -22t50.5 -27t36.5 -39.5t14 -58.5q0 -27 -10.5 -51.5t-31.5 -43t-51 -29.5t-69 -11q-54 0 -99 19.5t-77 46.5zM210 596q-17 0 -27.5 11t-10.5 30q0 17 10.5 28t27.5 11t27.5 -11t10.5 -28
q0 -19 -10.5 -30t-27.5 -11z" />
    <glyph glyph-name="uni1E63" unicode="&#x1e63;" horiz-adv-x="405" 
d="M58 87q31 -26 66 -43.5t87 -17.5q57 0 85.5 28.5t28.5 66.5q0 22 -10.5 39t-27.5 29t-37.5 21t-41.5 17l-54.5 21t-49.5 26.5t-35.5 37t-13.5 52.5q0 26 10 49.5t30 41t48.5 27.5t66.5 10t74.5 -14t62.5 -36l-24 -31q-24 18 -51 30.5t-64 12.5q-28 0 -48 -7.5
t-33.5 -19.5t-20 -28t-6.5 -32q0 -20 9.5 -34.5t25.5 -26t36.5 -20l41.5 -16.5l56 -22t50.5 -27t36.5 -39.5t14 -58.5q0 -27 -10.5 -51.5t-31.5 -43t-51 -29.5t-69 -11q-54 0 -99 19.5t-77 46.5zM217 -194q-17 0 -27.5 11t-10.5 30q0 17 10.5 28t27.5 11t27.5 -11t10.5 -28
q0 -19 -10.5 -30t-27.5 -11z" />
    <glyph glyph-name="germandbls" unicode="&#xdf;" horiz-adv-x="542" 
d="M92 532q0 93 46.5 145t124.5 52q33 0 58.5 -10.5t43.5 -28.5t27.5 -42.5t9.5 -52.5q0 -39 -15.5 -66.5t-34 -51t-34 -47t-15.5 -53.5q0 -29 15.5 -47t39 -31.5t50.5 -26.5t50.5 -31t39 -45t15.5 -69q0 -30 -11 -55t-30.5 -44t-46 -29.5t-58.5 -10.5q-39 0 -73 14t-63 37
l22 33q29 -23 55.5 -34.5t58.5 -11.5q25 0 44 8.5t31.5 22t19 31.5t6.5 37q0 35 -15.5 57t-38.5 37.5t-50.5 28t-50.5 28.5t-38.5 38.5t-15.5 58.5t15.5 62t33.5 49.5t33.5 48t15.5 58.5q0 44 -23.5 72t-71.5 28q-57 0 -91.5 -42t-34.5 -132v-517h-44v532z" />
    <glyph glyph-name="tcaron" unicode="&#x165;" horiz-adv-x="312" 
d="M103 442h-75v34l76 4l6 139h38v-139h139v-38h-139v-313q0 -23 3.5 -41.5t12.5 -32t24.5 -21t40.5 -7.5q14 0 30.5 4.5t29.5 10.5l12 -36q-21 -8 -42 -13t-36 -5q-35 0 -58 10.5t-37 29.5t-19.5 46t-5.5 59v309zM243 548l-3 206h38v-50l-8 -156h-27z" />
    <glyph glyph-name="uni0163" unicode="&#x163;" horiz-adv-x="312" 
d="M103 442h-75v34l76 4l6 139h38v-139h139v-38h-139v-313q0 -23 3.5 -41.5t12.5 -32t24.5 -21t40.5 -7.5q14 0 30.5 4.5t29.5 10.5l12 -36q-21 -8 -42 -13t-36 -5q-35 0 -58 10.5t-37 29.5t-19.5 46t-5.5 59v309zM194 2h35l-29 -56q24 -8 42 -23.5t18 -45.5
q0 -20 -10.5 -34.5t-28 -24.5t-40 -16.5t-46.5 -9.5l-7 30q42 6 67.5 18t25.5 33q0 23 -19 34t-48 19z" />
    <glyph glyph-name="uni021B" unicode="&#x21b;" horiz-adv-x="312" 
d="M103 442h-75v34l76 4l6 139h38v-139h139v-38h-139v-313q0 -23 3.5 -41.5t12.5 -32t24.5 -21t40.5 -7.5q14 0 30.5 4.5t29.5 10.5l12 -36q-21 -8 -42 -13t-36 -5q-35 0 -58 10.5t-37 29.5t-19.5 46t-5.5 59v309zM175 -51q41 -8 62 -25t21 -48q0 -20 -10.5 -34.5t-28 -24.5
t-40 -16.5t-46.5 -9.5l-7 30q42 6 67.5 18t25.5 32q0 23 -17.5 33.5t-39.5 15.5l13 29v0z" />
    <glyph glyph-name="uni1E6D" unicode="&#x1e6d;" horiz-adv-x="312" 
d="M103 442h-75v34l76 4l6 139h38v-139h139v-38h-139v-313q0 -23 3.5 -41.5t12.5 -32t24.5 -21t40.5 -7.5q14 0 30.5 4.5t29.5 10.5l12 -36q-21 -8 -42 -13t-36 -5q-35 0 -58 10.5t-37 29.5t-19.5 46t-5.5 59v309zM201 -194q-17 0 -27.5 11t-10.5 30q0 17 10.5 28t27.5 11
t27.5 -11t10.5 -28q0 -19 -10.5 -30t-27.5 -11z" />
    <glyph glyph-name="uni1E6F" unicode="&#x1e6f;" horiz-adv-x="312" 
d="M103 442h-75v34l76 4l6 139h38v-139h139v-38h-139v-313q0 -23 3.5 -41.5t12.5 -32t24.5 -21t40.5 -7.5q14 0 30.5 4.5t29.5 10.5l12 -36q-21 -8 -42 -13t-36 -5q-35 0 -58 10.5t-37 29.5t-19.5 46t-5.5 59v309zM313 -160h-228v36h228v-36z" />
    <glyph glyph-name="uni1E97" unicode="&#x1e97;" horiz-adv-x="312" 
d="M103 442h-75v34l76 4l6 139h38v-139h139v-38h-139v-313q0 -23 3.5 -41.5t12.5 -32t24.5 -21t40.5 -7.5q14 0 30.5 4.5t29.5 10.5l12 -36q-21 -8 -42 -13t-36 -5q-35 0 -58 10.5t-37 29.5t-19.5 46t-5.5 59v309zM51 731q-16 0 -26 10.5t-10 26.5q0 15 10 25.5t26 10.5
t26.5 -10.5t10.5 -25.5q0 -16 -10.5 -26.5t-26.5 -10.5zM209 731q-16 0 -26.5 10.5t-10.5 26.5q0 15 10.5 25.5t26.5 10.5t26 -10.5t10 -25.5q0 -16 -10 -26.5t-26 -10.5z" />
    <glyph glyph-name="ugrave" unicode="&#xf9;" horiz-adv-x="529" 
d="M85 480h44v-302q0 -77 25.5 -113.5t83.5 -36.5q43 0 78 23.5t77 74.5v354h44v-480h-37l-5 80h-2q-35 -42 -74 -67t-89 -25q-75 0 -110 45t-35 139v308zM176 708h52l92 -136h-38z" />
    <glyph glyph-name="uacute" unicode="&#xfa;" horiz-adv-x="529" 
d="M85 480h44v-302q0 -77 25.5 -113.5t83.5 -36.5q43 0 78 23.5t77 74.5v354h44v-480h-37l-5 80h-2q-35 -42 -74 -67t-89 -25q-75 0 -110 45t-35 139v308zM246 572h-38l92 136h52z" />
    <glyph glyph-name="ucircumflex" unicode="&#xfb;" horiz-adv-x="529" 
d="M85 480h44v-302q0 -77 25.5 -113.5t83.5 -36.5q43 0 78 23.5t77 74.5v354h44v-480h-37l-5 80h-2q-35 -42 -74 -67t-89 -25q-75 0 -110 45t-35 139v308zM245 708h38l95 -136h-37l-75 99h-4l-75 -99h-37z" />
    <glyph glyph-name="utilde" unicode="&#x169;" horiz-adv-x="529" 
d="M85 480h44v-302q0 -77 25.5 -113.5t83.5 -36.5q43 0 78 23.5t77 74.5v354h44v-480h-37l-5 80h-2q-35 -42 -74 -67t-89 -25q-75 0 -110 45t-35 139v308zM140 581q1 16 5 32t12.5 28.5t21 20.5t30.5 8t33 -8.5t28 -19t25 -19t25 -8.5q16 0 25 14.5t13 40.5h30
q-1 -16 -5 -32t-12.5 -28.5t-21 -20.5t-30.5 -8t-33 8.5t-27.5 19t-25 19t-25.5 8.5q-30 0 -38 -55h-30v0z" />
    <glyph glyph-name="udieresis" unicode="&#xfc;" horiz-adv-x="529" 
d="M85 480h44v-302q0 -77 25.5 -113.5t83.5 -36.5q43 0 78 23.5t77 74.5v354h44v-480h-37l-5 80h-2q-35 -42 -74 -67t-89 -25q-75 0 -110 45t-35 139v308zM185 598q-16 0 -26 10.5t-10 26.5q0 15 10 25.5t26 10.5t26.5 -10.5t10.5 -25.5q0 -16 -10.5 -26.5t-26.5 -10.5z
M343 598q-16 0 -26.5 10.5t-10.5 26.5q0 15 10.5 25.5t26.5 10.5t26 -10.5t10 -25.5q0 -16 -10 -26.5t-26 -10.5z" />
    <glyph glyph-name="umacron" unicode="&#x16b;" horiz-adv-x="529" 
d="M85 480h44v-302q0 -77 25.5 -113.5t83.5 -36.5q43 0 78 23.5t77 74.5v354h44v-480h-37l-5 80h-2q-35 -42 -74 -67t-89 -25q-75 0 -110 45t-35 139v308zM147 642h226v-36h-226v36z" />
    <glyph glyph-name="ubreve" unicode="&#x16d;" horiz-adv-x="529" 
d="M85 480h44v-302q0 -77 25.5 -113.5t83.5 -36.5q43 0 78 23.5t77 74.5v354h44v-480h-37l-5 80h-2q-35 -42 -74 -67t-89 -25q-75 0 -110 45t-35 139v308zM264 576q-31 0 -52.5 11.5t-35.5 29t-21.5 38.5t-9.5 40h33q2 -16 8.5 -31.5t17 -28t25.5 -20t35 -7.5t35 7.5
t25.5 20t17 28t8.5 31.5h33q-2 -19 -9.5 -40t-21.5 -38.5t-35.5 -29t-52.5 -11.5z" />
    <glyph glyph-name="uring" unicode="&#x16f;" horiz-adv-x="529" 
d="M85 480h44v-302q0 -77 25.5 -113.5t83.5 -36.5q43 0 78 23.5t77 74.5v354h44v-480h-37l-5 80h-2q-35 -42 -74 -67t-89 -25q-75 0 -110 45t-35 139v308zM264 539q-35 0 -58.5 24t-23.5 62q0 39 23.5 63t58.5 24t58.5 -24t23.5 -63q0 -38 -23.5 -62t-58.5 -24zM264 565
q22 0 37 16.5t15 43.5q0 28 -15 44.5t-37 16.5t-37 -16.5t-15 -44.5q0 -27 15 -43.5t37 -16.5z" />
    <glyph glyph-name="uhungarumlaut" unicode="&#x171;" horiz-adv-x="529" 
d="M85 480h44v-302q0 -77 25.5 -113.5t83.5 -36.5q43 0 78 23.5t77 74.5v354h44v-480h-37l-5 80h-2q-35 -42 -74 -67t-89 -25q-75 0 -110 45t-35 139v308zM254 708h45l-83 -138h-34zM387 708h46l-84 -138h-34z" />
    <glyph glyph-name="uni01D4" unicode="&#x1d4;" horiz-adv-x="529" 
d="M85 480h44v-302q0 -77 25.5 -113.5t83.5 -36.5q43 0 78 23.5t77 74.5v354h44v-480h-37l-5 80h-2q-35 -42 -74 -67t-89 -25q-75 0 -110 45t-35 139v308zM150 708h37l75 -99h4l75 99h37l-95 -136h-38z" />
    <glyph glyph-name="uni01D6" unicode="&#x1d6;" horiz-adv-x="529" 
d="M85 480h44v-302q0 -77 25.5 -113.5t83.5 -36.5q43 0 78 23.5t77 74.5v354h44v-480h-37l-5 80h-2q-35 -42 -74 -67t-89 -25q-75 0 -110 45t-35 139v308zM185 598q-15 0 -25 10.5t-10 25.5t10 25t25 10t25.5 -10t10.5 -25t-10.5 -25.5t-25.5 -10.5zM343 598
q-15 0 -25.5 10.5t-10.5 25.5t10.5 25t25.5 10t25 -10t10 -25t-10 -25.5t-25 -10.5zM149 780h228v-33h-228v33z" />
    <glyph glyph-name="uni01D8" unicode="&#x1d8;" horiz-adv-x="529" 
d="M85 480h44v-302q0 -77 25.5 -113.5t83.5 -36.5q43 0 78 23.5t77 74.5v354h44v-480h-37l-5 80h-2q-35 -42 -74 -67t-89 -25q-75 0 -110 45t-35 139v308zM301 808h52l-96 -98h-36zM185 598q-15 0 -25 10.5t-10 25.5t10 25t25 10t25.5 -10t10.5 -25t-10.5 -25.5t-25.5 -10.5
zM343 598q-15 0 -25.5 10.5t-10.5 25.5t10.5 25t25.5 10t25 -10t10 -25t-10 -25.5t-25 -10.5z" />
    <glyph glyph-name="uni01DA" unicode="&#x1da;" horiz-adv-x="529" 
d="M85 480h44v-302q0 -77 25.5 -113.5t83.5 -36.5q43 0 78 23.5t77 74.5v354h44v-480h-37l-5 80h-2q-35 -42 -74 -67t-89 -25q-75 0 -110 45t-35 139v308zM151 808h39l72 -67h4l72 67h39l-93 -98h-40zM185 598q-15 0 -25 10.5t-10 25.5t10 25t25 10t25.5 -10t10.5 -25
t-10.5 -25.5t-25.5 -10.5zM343 598q-15 0 -25.5 10.5t-10.5 25.5t10.5 25t25.5 10t25 -10t10 -25t-10 -25.5t-25 -10.5z" />
    <glyph glyph-name="uni01DC" unicode="&#x1dc;" horiz-adv-x="529" 
d="M85 480h44v-302q0 -77 25.5 -113.5t83.5 -36.5q43 0 78 23.5t77 74.5v354h44v-480h-37l-5 80h-2q-35 -42 -74 -67t-89 -25q-75 0 -110 45t-35 139v308zM307 710h-36l-96 98h52zM343 598q-15 0 -25.5 10.5t-10.5 25.5t10.5 25t25.5 10t25 -10t10 -25t-10 -25.5t-25 -10.5z
M185 598q-15 0 -25 10.5t-10 25.5t10 25t25 10t25.5 -10t10.5 -25t-10.5 -25.5t-25.5 -10.5z" />
    <glyph glyph-name="uni1EE5" unicode="&#x1ee5;" horiz-adv-x="529" 
d="M85 480h44v-302q0 -77 25.5 -113.5t83.5 -36.5q43 0 78 23.5t77 74.5v354h44v-480h-37l-5 80h-2q-35 -42 -74 -67t-89 -25q-75 0 -110 45t-35 139v308zM282 -194q-17 0 -27.5 11t-10.5 30q0 17 10.5 28t27.5 11t27.5 -11t10.5 -28q0 -19 -10.5 -30t-27.5 -11z" />
    <glyph glyph-name="uni1EE7" unicode="&#x1ee7;" horiz-adv-x="529" 
d="M85 480h44v-302q0 -77 25.5 -113.5t83.5 -36.5q43 0 78 23.5t77 74.5v354h44v-480h-37l-5 80h-2q-35 -42 -74 -67t-89 -25q-75 0 -110 45t-35 139v308zM232 577q27 8 45 20.5t18 34.5q0 45 -85 48l4 32q25 -1 47 -6t38.5 -14t26 -22.5t9.5 -32.5q0 -20 -8 -34t-21.5 -24
t-30.5 -16.5t-35 -11.5z" />
    <glyph glyph-name="uogonek" unicode="&#x173;" horiz-adv-x="529" 
d="M85 480h44v-302q0 -77 25 -113.5t84 -36.5q43 0 78 23.5t77 74.5v354h44v-480q-42 -26 -64 -55t-22 -61q0 -26 15 -39t34 -13q25 0 43 14l16 -26q-11 -10 -30 -16.5t-35 -6.5q-35 0 -58 20t-23 61q0 38 24 69t63 60l-5 73h-2q-35 -42 -74 -67t-89 -25q-75 0 -110 45
t-35 139v308z" />
    <glyph glyph-name="uhorn" unicode="&#x1b0;" horiz-adv-x="529" 
d="M507 608q9 -14 14 -27.5t5 -28.5q0 -23 -8.5 -39t-21 -27t-28.5 -18t-31 -11v-457h-37l-5 80h-2q-35 -42 -74 -67t-89 -25q-75 0 -110 45t-35 139v308h44v-302q0 -77 25.5 -113.5t83.5 -36.5q43 0 78 23.5t77 74.5v354h7q39 5 62.5 21.5t23.5 47.5q0 19 -14 39z" />
    <glyph glyph-name="uni1EE9" unicode="&#x1ee9;" horiz-adv-x="529" 
d="M507 608q9 -14 14 -27.5t5 -28.5q0 -23 -8.5 -39t-21 -27t-28.5 -18t-31 -11v-457h-37l-5 80h-2q-35 -42 -74 -67t-89 -25q-75 0 -110 45t-35 139v308h44v-302q0 -77 25.5 -113.5t83.5 -36.5q43 0 78 23.5t77 74.5v354h7q39 5 62.5 21.5t23.5 47.5q0 19 -14 39zM242 572
h-38l92 136h52z" />
    <glyph glyph-name="uni1EEB" unicode="&#x1eeb;" horiz-adv-x="529" 
d="M507 608q9 -14 14 -27.5t5 -28.5q0 -23 -8.5 -39t-21 -27t-28.5 -18t-31 -11v-457h-37l-5 80h-2q-35 -42 -74 -67t-89 -25q-75 0 -110 45t-35 139v308h44v-302q0 -77 25.5 -113.5t83.5 -36.5q43 0 78 23.5t77 74.5v354h7q39 5 62.5 21.5t23.5 47.5q0 19 -14 39zM172 708
h52l92 -136h-38z" />
    <glyph glyph-name="uni1EED" unicode="&#x1eed;" horiz-adv-x="529" 
d="M507 608q9 -14 14 -27.5t5 -28.5q0 -23 -8.5 -39t-21 -27t-28.5 -18t-31 -11v-457h-37l-5 80h-2q-35 -42 -74 -67t-89 -25q-75 0 -110 45t-35 139v308h44v-302q0 -77 25.5 -113.5t83.5 -36.5q43 0 78 23.5t77 74.5v354h7q39 5 62.5 21.5t23.5 47.5q0 19 -14 39zM228 577
q27 8 45 20.5t18 34.5q0 45 -85 48l4 32q25 -1 47 -6t38.5 -14t26 -22.5t9.5 -32.5q0 -20 -8 -34t-21.5 -24t-30.5 -16.5t-35 -11.5z" />
    <glyph glyph-name="uni1EEF" unicode="&#x1eef;" horiz-adv-x="529" 
d="M507 608q9 -14 14 -27.5t5 -28.5q0 -23 -8.5 -39t-21 -27t-28.5 -18t-31 -11v-457h-37l-5 80h-2q-35 -42 -74 -67t-89 -25q-75 0 -110 45t-35 139v308h44v-302q0 -77 25.5 -113.5t83.5 -36.5q43 0 78 23.5t77 74.5v354h7q39 5 62.5 21.5t23.5 47.5q0 19 -14 39zM136 581
q1 16 5 32t12.5 28.5t21 20.5t30.5 8t33 -8.5t28 -19t25 -19t25 -8.5q16 0 25 14.5t13 40.5h30q-1 -16 -5 -32t-12.5 -28.5t-21 -20.5t-30.5 -8t-33 8.5t-27.5 19t-25 19t-25.5 8.5q-30 0 -38 -55h-30v0z" />
    <glyph glyph-name="uni1EF1" unicode="&#x1ef1;" horiz-adv-x="529" 
d="M507 608q9 -14 14 -27.5t5 -28.5q0 -23 -8.5 -39t-21 -27t-28.5 -18t-31 -11v-457h-37l-5 80h-2q-35 -42 -74 -67t-89 -25q-75 0 -110 45t-35 139v308h44v-302q0 -77 25.5 -113.5t83.5 -36.5q43 0 78 23.5t77 74.5v354h7q39 5 62.5 21.5t23.5 47.5q0 19 -14 39zM279 -194
q-17 0 -27.5 11t-10.5 30q0 17 10.5 28t27.5 11t27.5 -11t10.5 -28q0 -19 -10.5 -30t-27.5 -11z" />
    <glyph glyph-name="wgrave" unicode="&#x1e81;" horiz-adv-x="685" 
d="M24 480h48l86 -311l17 -64.5l16 -63.5h4q8 32 17 63.5l18 64.5l87 311h53l87 -311l18 -64.5l18 -63.5h4q8 32 17 63.5t17 64.5l85 311h45l-138 -480h-58l-84 298q-11 35 -18.5 68.5t-18.5 68.5h-4q-8 -35 -17.5 -69.5t-20.5 -69.5l-83 -296h-53zM255 708h52l92 -136h-38z
" />
    <glyph glyph-name="wacute" unicode="&#x1e83;" horiz-adv-x="685" 
d="M24 480h48l86 -311l17 -64.5l16 -63.5h4q8 32 17 63.5l18 64.5l87 311h53l87 -311l18 -64.5l18 -63.5h4q8 32 17 63.5t17 64.5l85 311h45l-138 -480h-58l-84 298q-11 35 -18.5 68.5t-18.5 68.5h-4q-8 -35 -17.5 -69.5t-20.5 -69.5l-83 -296h-53zM325 572h-38l92 136h52z
" />
    <glyph glyph-name="wcircumflex" unicode="&#x175;" horiz-adv-x="685" 
d="M24 480h48l86 -311l17 -64.5l16 -63.5h4q8 32 17 63.5l18 64.5l87 311h53l87 -311l18 -64.5l18 -63.5h4q8 32 17 63.5t17 64.5l85 311h45l-138 -480h-58l-84 298q-11 35 -18.5 68.5t-18.5 68.5h-4q-8 -35 -17.5 -69.5t-20.5 -69.5l-83 -296h-53zM324 708h38l95 -136h-37
l-75 99h-4l-75 -99h-37z" />
    <glyph glyph-name="wdieresis" unicode="&#x1e85;" horiz-adv-x="685" 
d="M24 480h48l86 -311l17 -64.5l16 -63.5h4q8 32 17 63.5l18 64.5l87 311h53l87 -311l18 -64.5l18 -63.5h4q8 32 17 63.5t17 64.5l85 311h45l-138 -480h-58l-84 298q-11 35 -18.5 68.5t-18.5 68.5h-4q-8 -35 -17.5 -69.5t-20.5 -69.5l-83 -296h-53zM264 598q-16 0 -26 10.5
t-10 26.5q0 15 10 25.5t26 10.5t26.5 -10.5t10.5 -25.5q0 -16 -10.5 -26.5t-26.5 -10.5zM422 598q-16 0 -26.5 10.5t-10.5 26.5q0 15 10.5 25.5t26.5 10.5t26 -10.5t10 -25.5q0 -16 -10 -26.5t-26 -10.5z" />
    <glyph glyph-name="ygrave" unicode="&#x1ef3;" horiz-adv-x="436" 
d="M34 -170q8 -3 18 -5.5t21 -2.5q45 0 75 36t48 91l13 42l-197 489h48l116 -302l24.5 -66t27.5 -68h4l22.5 68l21.5 66l103 302h45l-190 -540q-10 -30 -24.5 -58.5t-34 -51t-45 -36t-57.5 -13.5q-27 0 -49 10l10 39v0zM141 708h52l92 -136h-38z" />
    <glyph glyph-name="yacute" unicode="&#xfd;" horiz-adv-x="436" 
d="M34 -170q8 -3 18 -5.5t21 -2.5q45 0 75 36t48 91l13 42l-197 489h48l116 -302l24.5 -66t27.5 -68h4l22.5 68l21.5 66l103 302h45l-190 -540q-10 -30 -24.5 -58.5t-34 -51t-45 -36t-57.5 -13.5q-27 0 -49 10l10 39v0zM211 572h-38l92 136h52z" />
    <glyph glyph-name="ycircumflex" unicode="&#x177;" horiz-adv-x="436" 
d="M34 -170q8 -3 18 -5.5t21 -2.5q45 0 75 36t48 91l13 42l-197 489h48l116 -302l24.5 -66t27.5 -68h4l22.5 68l21.5 66l103 302h45l-190 -540q-10 -30 -24.5 -58.5t-34 -51t-45 -36t-57.5 -13.5q-27 0 -49 10l10 39v0zM210 708h38l95 -136h-37l-75 99h-4l-75 -99h-37z" />
    <glyph glyph-name="ydieresis" unicode="&#xff;" horiz-adv-x="436" 
d="M34 -170q8 -3 18 -5.5t21 -2.5q45 0 75 36t48 91l13 42l-197 489h48l116 -302l24.5 -66t27.5 -68h4l22.5 68l21.5 66l103 302h45l-190 -540q-10 -30 -24.5 -58.5t-34 -51t-45 -36t-57.5 -13.5q-27 0 -49 10l10 39v0zM150 598q-16 0 -26 10.5t-10 26.5q0 15 10 25.5
t26 10.5t26.5 -10.5t10.5 -25.5q0 -16 -10.5 -26.5t-26.5 -10.5zM308 598q-16 0 -26.5 10.5t-10.5 26.5q0 15 10.5 25.5t26.5 10.5t26 -10.5t10 -25.5q0 -16 -10 -26.5t-26 -10.5z" />
    <glyph glyph-name="uni1E8F" unicode="&#x1e8f;" horiz-adv-x="436" 
d="M34 -170q8 -3 18 -5.5t21 -2.5q45 0 75 36t48 91l13 42l-197 489h48l116 -302l24.5 -66t27.5 -68h4l22.5 68l21.5 66l103 302h45l-190 -540q-10 -30 -24.5 -58.5t-34 -51t-45 -36t-57.5 -13.5q-27 0 -49 10l10 39v0zM229 596q-17 0 -27.5 11t-10.5 30q0 17 10.5 28
t27.5 11t27.5 -11t10.5 -28q0 -19 -10.5 -30t-27.5 -11z" />
    <glyph glyph-name="uni1EF5" unicode="&#x1ef5;" horiz-adv-x="436" 
d="M34 -170q8 -3 18 -5.5t21 -2.5q45 0 75 36t48 91l13 42l-197 489h48l116 -302l24.5 -66t27.5 -68h4l22.5 68l21.5 66l103 302h45l-190 -540q-10 -30 -24.5 -58.5t-34 -51t-45 -36t-57.5 -13.5q-27 0 -49 10l10 39v0zM360 -193q-17 0 -27.5 11t-10.5 30q0 17 10.5 28
t27.5 11t27.5 -11t10.5 -28q0 -19 -10.5 -30t-27.5 -11z" />
    <glyph glyph-name="uni1EF7" unicode="&#x1ef7;" horiz-adv-x="436" 
d="M34 -170q8 -3 18 -5.5t21 -2.5q45 0 75 36t48 91l13 42l-197 489h48l116 -302l24.5 -66t27.5 -68h4l22.5 68l21.5 66l103 302h45l-190 -540q-10 -30 -24.5 -58.5t-34 -51t-45 -36t-57.5 -13.5q-27 0 -49 10l10 39v0zM197 577q27 8 45 20.5t18 34.5q0 45 -85 48l4 32
q25 -1 47 -6t38.5 -14t26 -22.5t9.5 -32.5q0 -20 -8 -34t-21.5 -24t-30.5 -16.5t-35 -11.5z" />
    <glyph glyph-name="uni1EF9" unicode="&#x1ef9;" horiz-adv-x="436" 
d="M34 -170q8 -3 18 -5.5t21 -2.5q45 0 75 36t48 91l13 42l-197 489h48l116 -302l24.5 -66t27.5 -68h4l22.5 68l21.5 66l103 302h45l-190 -540q-10 -30 -24.5 -58.5t-34 -51t-45 -36t-57.5 -13.5q-27 0 -49 10l10 39v0zM105 581q1 16 5 32t12.5 28.5t21 20.5t30.5 8t33 -8.5
t28 -19t25 -19t25 -8.5q16 0 25 14.5t13 40.5h30q-1 -16 -5 -32t-12.5 -28.5t-21 -20.5t-30.5 -8t-33 8.5t-27.5 19t-25 19t-25.5 8.5q-30 0 -38 -55h-30v0z" />
    <glyph glyph-name="zacute" unicode="&#x17a;" horiz-adv-x="404" 
d="M27 24l284 418h-253v38h310v-23l-283 -418h293v-39h-351v24zM201 572h-38l92 136h52z" />
    <glyph glyph-name="zcaron" unicode="&#x17e;" horiz-adv-x="404" 
d="M27 24l284 418h-253v38h310v-23l-283 -418h293v-39h-351v24zM105 708h37l75 -99h4l75 99h37l-95 -136h-38z" />
    <glyph glyph-name="zdotaccent" unicode="&#x17c;" horiz-adv-x="404" 
d="M27 24l284 418h-253v38h310v-23l-283 -418h293v-39h-351v24zM219 596q-17 0 -27.5 11t-10.5 30q0 17 10.5 28t27.5 11t27.5 -11t10.5 -28q0 -19 -10.5 -30t-27.5 -11z" />
    <glyph glyph-name="uni1E93" unicode="&#x1e93;" horiz-adv-x="404" 
d="M27 24l284 418h-253v38h310v-23l-283 -418h293v-39h-351v24zM218 -194q-17 0 -27.5 11t-10.5 30q0 17 10.5 28t27.5 11t27.5 -11t10.5 -28q0 -19 -10.5 -30t-27.5 -11z" />
    <glyph glyph-name="eth" unicode="&#xf0;" horiz-adv-x="535" 
d="M267 27q41 0 70.5 17.5t49 47.5t29 71t9.5 88q0 32 -3 62q-19 28 -38.5 46t-38.5 28t-38 13.5t-38 3.5q-41 0 -71.5 -15t-51.5 -40.5t-31.5 -59t-10.5 -70.5q0 -42 13 -77.5t35 -61t52 -39.5t63 -14zM335 607q30 -30 54.5 -66.5t42.5 -80t28 -95.5t10 -113
q0 -60 -15 -109t-41.5 -83.5t-64 -53t-82.5 -18.5q-40 0 -77.5 16t-66 45.5t-46 72.5t-17.5 97q0 49 15 90.5t42.5 70.5t65.5 45.5t84 16.5q43 0 81 -19t67 -57q-14 74 -44 127t-72 95l-142 -74l-15 28l132 68q-28 24 -59 44.5t-64 39.5l22 30q37 -20 71.5 -43t66.5 -52
l142 74l15 -27z" />
    <glyph glyph-name="thorn" unicode="&#xfe;" horiz-adv-x="544" 
d="M136 -217h-44v936h44v-207v-91q36 28 77 49.5t86 21.5q48 0 84.5 -17.5t60.5 -49.5t36 -77t12 -101q0 -61 -17 -109t-46.5 -81.5t-68 -51t-80.5 -17.5q-35 0 -70.5 15t-73.5 43v-88v-175zM136 89q42 -34 78 -48t64 -14q36 0 67 16t53 45t34.5 69.5t12.5 89.5
q0 44 -8.5 82t-26.5 65.5t-47 43t-70 15.5q-36 0 -74.5 -20.5t-82.5 -58.5v-285z" />
    <glyph glyph-name="uni0237" unicode="&#x237;" horiz-adv-x="229" 
d="M92 480h45v-569q0 -71 -26 -105.5t-82 -34.5q-17 0 -34 3.5t-28 8.5l11 36q9 -3 22.5 -6.5t27.5 -3.5q40 0 52 29.5t12 75.5v566z" />
    <glyph glyph-name="uni0251" unicode="&#x251;" horiz-adv-x="544" 
d="M99 239q0 -48 10.5 -87t30.5 -66.5t49.5 -43t67.5 -15.5q40 0 76.5 20.5t74.5 58.5v285q-38 34 -71.5 48t-68.5 14q-36 0 -67 -16.5t-53.5 -45t-35.5 -68t-13 -84.5zM52 239q0 58 17.5 105t46.5 80t68 50.5t82 17.5t75.5 -15t66.5 -43h2l3 46h39v-480h-38l-4 62h-3
q-29 -29 -68.5 -51.5t-87.5 -22.5q-91 0 -145 64.5t-54 186.5z" />
    <glyph glyph-name="uni0259" unicode="&#x259;" horiz-adv-x="483" 
d="M38 219v18t2 18h346q-1 43 -12 79.5t-32 63t-51 41.5t-69 15q-42 0 -74.5 -13t-61.5 -33l-18 33q30 21 67.5 36t91.5 15q44 0 81.5 -16.5t64.5 -49t42.5 -79t15.5 -106.5q0 -59 -15 -106t-42 -79.5t-63.5 -50t-79.5 -17.5q-42 0 -77.5 15t-61 44t-40 72.5t-14.5 99.5z
M79 221q0 -101 42.5 -148t108.5 -47q68 0 108.5 52t47.5 143h-307z" />
    <glyph glyph-name="uni0261" unicode="&#x261;" horiz-adv-x="545" 
d="M110 -142q36 -26 73 -37.5t75 -11.5q75 0 112.5 41.5t37.5 114.5l1 109q-30 -29 -70 -51.5t-88 -22.5q-91 0 -144.5 63.5t-53.5 182.5q0 57 17 102.5t46.5 77.5t68 49t81.5 17t75.5 -15t64.5 -41h3l4 44h39v-522q0 -86 -50 -136.5t-144 -50.5q-48 0 -90.5 14t-77.5 38z
M258 39q40 0 76 20.5t74 58.5v273q-38 34 -71.5 48t-68.5 14q-36 0 -66.5 -16t-53.5 -43.5t-36 -65.5t-13 -82q0 -93 41 -150t118 -57z" />
    <glyph glyph-name="fi" unicode="&#xfb01;" horiz-adv-x="510" 
d="M276 679q-15 8 -29.5 11t-28.5 3q-38 0 -56.5 -28.5t-18.5 -80.5v-104h111v-38h-111v-442h-44v442h-66v34l66 4v107q0 72 31 108t88 36q35 0 70 -16zM396 596q-17 0 -28.5 11t-11.5 28q0 19 11.5 29.5t28.5 10.5t28.5 -10.5t11.5 -29.5q0 -17 -11.5 -28t-28.5 -11z
M373 480h44v-480h-44v480z" />
    <glyph glyph-name="fl" unicode="&#xfb02;" horiz-adv-x="500" 
d="M276 679q-15 8 -29.5 11t-28.5 3q-38 0 -56.5 -28.5t-18.5 -80.5v-104h111v-38h-111v-442h-44v442h-66v34l66 4v107q0 72 31 108t88 36q35 0 70 -16zM355 719h44v-661q0 -16 6 -23.5t15 -7.5h6.5t11.5 2l8 -36q-7 -2 -14 -3.5t-18 -1.5q-59 0 -59 76v655z" />
    <glyph glyph-name="I.a" horiz-adv-x="313" 
d="M43 40h90v579h-90v40h225v-40h-89v-579h89v-40h-225v40z" />
    <glyph glyph-name="Igrave.a" horiz-adv-x="313" 
d="M43 40h90v579h-90v40h225v-40h-89v-579h89v-40h-225v40zM43 815h58l92 -106h-40z" />
    <glyph glyph-name="Iacute.a" horiz-adv-x="313" 
d="M43 40h90v579h-90v40h225v-40h-89v-579h89v-40h-225v40zM159 709h-40l92 106h58z" />
    <glyph glyph-name="Icircumflex.a" horiz-adv-x="313" 
d="M43 40h90v579h-90v40h225v-40h-89v-579h89v-40h-225v40zM39 709l96 106h42l96 -106h-40l-75 72h-4l-75 -72h-40z" />
    <glyph glyph-name="Itilde.a" horiz-adv-x="313" 
d="M43 40h90v579h-90v40h225v-40h-89v-579h89v-40h-225v40zM215 716q-20 0 -35.5 9t-29 19.5t-26.5 19.5t-28 9q-16 0 -27 -15.5t-14 -41.5h-29q1 17 6 33.5t14 29.5t21.5 21t29.5 8q20 0 35 -9t28.5 -19.5t27 -19t28.5 -8.5q16 0 27 15t14 41h29q-1 -17 -6 -33t-14 -29.5
t-21.5 -21.5t-29.5 -8z" />
    <glyph glyph-name="Idieresis.a" horiz-adv-x="313" 
d="M43 40h90v579h-90v40h225v-40h-89v-579h89v-40h-225v40zM77 725q-16 0 -26 9.5t-10 26.5t10 27t26 10t26.5 -10t10.5 -27t-10.5 -26.5t-26.5 -9.5zM235 725q-16 0 -26.5 9.5t-10.5 26.5t10.5 27t26.5 10t26 -10t10 -27t-10 -26.5t-26 -9.5z" />
    <glyph glyph-name="Imacron.a" horiz-adv-x="313" 
d="M43 40h90v579h-90v40h225v-40h-89v-579h89v-40h-225v40zM42 770h228v-36h-228v36z" />
    <glyph glyph-name="Idotaccent.a" horiz-adv-x="313" 
d="M43 40h90v579h-90v40h225v-40h-89v-579h89v-40h-225v40zM156 721q-17 0 -28.5 11t-11.5 30q0 17 11.5 28t28.5 11t28.5 -11t11.5 -28q0 -19 -11.5 -30t-28.5 -11z" />
    <glyph glyph-name="uni01CF.a" horiz-adv-x="313" 
d="M43 40h90v579h-90v40h225v-40h-89v-579h89v-40h-225v40zM273 815l-96 -106h-42l-96 106h40l75 -72h4l75 72h40z" />
    <glyph glyph-name="uni1EC8.a" horiz-adv-x="313" 
d="M43 40h90v579h-90v40h225v-40h-89v-579h89v-40h-225v40zM124 729q27 8 45 20.5t18 33.5q0 45 -85 48l4 32q25 -1 47 -5.5t38.5 -13.5t26 -22.5t9.5 -32.5q0 -20 -8 -34t-21.5 -24t-30.5 -17t-35 -12z" />
    <glyph glyph-name="uni1ECA.a" horiz-adv-x="313" 
d="M43 40h90v579h-90v40h225v-40h-89v-579h89v-40h-225v40zM158 -194q-17 0 -27.5 11t-10.5 30q0 17 10.5 28t27.5 11t27.5 -11t10.5 -28q0 -19 -10.5 -30t-27.5 -11z" />
    <glyph glyph-name="Iogonek.a" horiz-adv-x="313" 
d="M43 40h90v579h-90v40h225v-40h-89v-579h89v-40h-83q-32 -24 -50 -54.5t-18 -61.5q0 -26 15.5 -39t35.5 -13q23 0 43 14l16 -27q-11 -10 -29.5 -17t-35.5 -7q-35 0 -59.5 20t-24.5 62q0 38 19.5 69.5t45.5 53.5h-100v40z" />
    <glyph glyph-name="a.a" horiz-adv-x="544" 
d="M99 239q0 -48 10.5 -87t30.5 -66.5t49.5 -43t67.5 -15.5q40 0 76.5 20.5t74.5 58.5v285q-38 34 -71.5 48t-68.5 14q-36 0 -67 -16.5t-53.5 -45t-35.5 -68t-13 -84.5zM52 239q0 58 17.5 105t46.5 80t68 50.5t82 17.5t75.5 -15t66.5 -43h2l3 46h39v-480h-38l-4 62h-3
q-29 -29 -68.5 -51.5t-87.5 -22.5q-91 0 -145 64.5t-54 186.5z" />
    <glyph glyph-name="agrave.a" horiz-adv-x="544" 
d="M99 239q0 -48 10.5 -87t30.5 -66.5t49.5 -43t67.5 -15.5q40 0 76.5 20.5t74.5 58.5v285q-38 34 -71.5 48t-68.5 14q-36 0 -67 -16.5t-53.5 -45t-35.5 -68t-13 -84.5zM52 239q0 58 17.5 105t46.5 80t68 50.5t82 17.5t75.5 -15t66.5 -43h2l3 46h39v-480h-38l-4 62h-3
q-29 -29 -68.5 -51.5t-87.5 -22.5q-91 0 -145 64.5t-54 186.5zM185 708h52l92 -136h-38z" />
    <glyph glyph-name="aacute.a" horiz-adv-x="544" 
d="M99 239q0 -48 10.5 -87t30.5 -66.5t49.5 -43t67.5 -15.5q40 0 76.5 20.5t74.5 58.5v285q-38 34 -71.5 48t-68.5 14q-36 0 -67 -16.5t-53.5 -45t-35.5 -68t-13 -84.5zM52 239q0 58 17.5 105t46.5 80t68 50.5t82 17.5t75.5 -15t66.5 -43h2l3 46h39v-480h-38l-4 62h-3
q-29 -29 -68.5 -51.5t-87.5 -22.5q-91 0 -145 64.5t-54 186.5zM255 572h-38l92 136h52z" />
    <glyph glyph-name="acircumflex.a" horiz-adv-x="544" 
d="M99 239q0 -48 10.5 -87t30.5 -66.5t49.5 -43t67.5 -15.5q40 0 76.5 20.5t74.5 58.5v285q-38 34 -71.5 48t-68.5 14q-36 0 -67 -16.5t-53.5 -45t-35.5 -68t-13 -84.5zM52 239q0 58 17.5 105t46.5 80t68 50.5t82 17.5t75.5 -15t66.5 -43h2l3 46h39v-480h-38l-4 62h-3
q-29 -29 -68.5 -51.5t-87.5 -22.5q-91 0 -145 64.5t-54 186.5zM254 708h38l95 -136h-37l-75 99h-4l-75 -99h-37z" />
    <glyph glyph-name="atilde.a" horiz-adv-x="544" 
d="M99 239q0 -48 10.5 -87t30.5 -66.5t49.5 -43t67.5 -15.5q40 0 76.5 20.5t74.5 58.5v285q-38 34 -71.5 48t-68.5 14q-36 0 -67 -16.5t-53.5 -45t-35.5 -68t-13 -84.5zM52 239q0 58 17.5 105t46.5 80t68 50.5t82 17.5t75.5 -15t66.5 -43h2l3 46h39v-480h-38l-4 62h-3
q-29 -29 -68.5 -51.5t-87.5 -22.5q-91 0 -145 64.5t-54 186.5zM149 581q1 16 5 32t12.5 28.5t21 20.5t30.5 8t33 -8.5t28 -19t25 -19t25 -8.5q16 0 25 14.5t13 40.5h30q-1 -16 -5 -32t-12.5 -28.5t-21 -20.5t-30.5 -8t-33 8.5t-27.5 19t-25 19t-25.5 8.5q-30 0 -38 -55h-30
v0z" />
    <glyph glyph-name="adieresis.a" horiz-adv-x="544" 
d="M99 239q0 -48 10.5 -87t30.5 -66.5t49.5 -43t67.5 -15.5q40 0 76.5 20.5t74.5 58.5v285q-38 34 -71.5 48t-68.5 14q-36 0 -67 -16.5t-53.5 -45t-35.5 -68t-13 -84.5zM52 239q0 58 17.5 105t46.5 80t68 50.5t82 17.5t75.5 -15t66.5 -43h2l3 46h39v-480h-38l-4 62h-3
q-29 -29 -68.5 -51.5t-87.5 -22.5q-91 0 -145 64.5t-54 186.5zM194 598q-16 0 -26 10.5t-10 26.5q0 15 10 25.5t26 10.5t26.5 -10.5t10.5 -25.5q0 -16 -10.5 -26.5t-26.5 -10.5zM352 598q-16 0 -26.5 10.5t-10.5 26.5q0 15 10.5 25.5t26.5 10.5t26 -10.5t10 -25.5
q0 -16 -10 -26.5t-26 -10.5z" />
    <glyph glyph-name="amacron.a" horiz-adv-x="544" 
d="M99 239q0 -48 10.5 -87t30.5 -66.5t49.5 -43t67.5 -15.5q40 0 76.5 20.5t74.5 58.5v285q-38 34 -71.5 48t-68.5 14q-36 0 -67 -16.5t-53.5 -45t-35.5 -68t-13 -84.5zM52 239q0 58 17.5 105t46.5 80t68 50.5t82 17.5t75.5 -15t66.5 -43h2l3 46h39v-480h-38l-4 62h-3
q-29 -29 -68.5 -51.5t-87.5 -22.5q-91 0 -145 64.5t-54 186.5zM160 642h226v-36h-226v36z" />
    <glyph glyph-name="abreve.a" horiz-adv-x="544" 
d="M99 239q0 -48 10.5 -87t30.5 -66.5t49.5 -43t67.5 -15.5q40 0 76.5 20.5t74.5 58.5v285q-38 34 -71.5 48t-68.5 14q-36 0 -67 -16.5t-53.5 -45t-35.5 -68t-13 -84.5zM52 239q0 58 17.5 105t46.5 80t68 50.5t82 17.5t75.5 -15t66.5 -43h2l3 46h39v-480h-38l-4 62h-3
q-29 -29 -68.5 -51.5t-87.5 -22.5q-91 0 -145 64.5t-54 186.5zM273 576q-31 0 -52.5 11.5t-35.5 29t-21.5 38.5t-9.5 40h33q2 -16 8.5 -31.5t17 -28t25.5 -20t35 -7.5t35 7.5t25.5 20t17 28t8.5 31.5h33q-2 -19 -9.5 -40t-21.5 -38.5t-35.5 -29t-52.5 -11.5z" />
    <glyph glyph-name="aring.a" horiz-adv-x="544" 
d="M99 239q0 -48 10.5 -87t30.5 -66.5t49.5 -43t67.5 -15.5q40 0 76.5 20.5t74.5 58.5v285q-38 34 -71.5 48t-68.5 14q-36 0 -67 -16.5t-53.5 -45t-35.5 -68t-13 -84.5zM52 239q0 58 17.5 105t46.5 80t68 50.5t82 17.5t75.5 -15t66.5 -43h2l3 46h39v-480h-38l-4 62h-3
q-29 -29 -68.5 -51.5t-87.5 -22.5q-91 0 -145 64.5t-54 186.5zM273 539q-35 0 -58.5 24t-23.5 62q0 39 23.5 63t58.5 24t58.5 -24t23.5 -63q0 -38 -23.5 -62t-58.5 -24zM273 565q22 0 37 16.5t15 43.5q0 28 -15 44.5t-37 16.5t-37 -16.5t-15 -44.5q0 -27 15 -43.5t37 -16.5z
" />
    <glyph glyph-name="uni01CE.a" horiz-adv-x="544" 
d="M99 239q0 -48 10.5 -87t30.5 -66.5t49.5 -43t67.5 -15.5q40 0 76.5 20.5t74.5 58.5v285q-38 34 -71.5 48t-68.5 14q-36 0 -67 -16.5t-53.5 -45t-35.5 -68t-13 -84.5zM52 239q0 58 17.5 105t46.5 80t68 50.5t82 17.5t75.5 -15t66.5 -43h2l3 46h39v-480h-38l-4 62h-3
q-29 -29 -68.5 -51.5t-87.5 -22.5q-91 0 -145 64.5t-54 186.5zM159 708h37l75 -99h4l75 99h37l-95 -136h-38z" />
    <glyph glyph-name="uni1EA1.a" horiz-adv-x="544" 
d="M99 239q0 -48 10.5 -87t30.5 -66.5t49.5 -43t67.5 -15.5q40 0 76.5 20.5t74.5 58.5v285q-38 34 -71.5 48t-68.5 14q-36 0 -67 -16.5t-53.5 -45t-35.5 -68t-13 -84.5zM52 239q0 58 17.5 105t46.5 80t68 50.5t82 17.5t75.5 -15t66.5 -43h2l3 46h39v-480h-38l-4 62h-3
q-29 -29 -68.5 -51.5t-87.5 -22.5q-91 0 -145 64.5t-54 186.5zM274 -194q-17 0 -27.5 11t-10.5 30q0 17 10.5 28t27.5 11t27.5 -11t10.5 -28q0 -19 -10.5 -30t-27.5 -11z" />
    <glyph glyph-name="uni1EA3.a" horiz-adv-x="544" 
d="M99 239q0 -48 10.5 -87t30.5 -66.5t49.5 -43t67.5 -15.5q40 0 76.5 20.5t74.5 58.5v285q-38 34 -71.5 48t-68.5 14q-36 0 -67 -16.5t-53.5 -45t-35.5 -68t-13 -84.5zM52 239q0 58 17.5 105t46.5 80t68 50.5t82 17.5t75.5 -15t66.5 -43h2l3 46h39v-480h-38l-4 62h-3
q-29 -29 -68.5 -51.5t-87.5 -22.5q-91 0 -145 64.5t-54 186.5zM241 577q27 8 45 20.5t18 34.5q0 45 -85 48l4 32q25 -1 47 -6t38.5 -14t26 -22.5t9.5 -32.5q0 -20 -8 -34t-21.5 -24t-30.5 -16.5t-35 -11.5z" />
    <glyph glyph-name="uni1EA5.a" horiz-adv-x="544" 
d="M99 239q0 -48 10.5 -87t30.5 -66.5t49.5 -43t67.5 -15.5q40 0 76.5 20.5t74.5 58.5v285q-38 34 -71.5 48t-68.5 14q-36 0 -67 -16.5t-53.5 -45t-35.5 -68t-13 -84.5zM52 239q0 58 17.5 105t46.5 80t68 50.5t82 17.5t75.5 -15t66.5 -43h2l3 46h39v-480h-38l-4 62h-3
q-29 -29 -68.5 -51.5t-87.5 -22.5q-91 0 -145 64.5t-54 186.5zM254 686h38l84 -114h-36l-65 78h-4l-65 -78h-36zM428 748h46l-90 -111h-33z" />
    <glyph glyph-name="uni1EA7.a" horiz-adv-x="544" 
d="M99 239q0 -48 10.5 -87t30.5 -66.5t49.5 -43t67.5 -15.5q40 0 76.5 20.5t74.5 58.5v285q-38 34 -71.5 48t-68.5 14q-36 0 -67 -16.5t-53.5 -45t-35.5 -68t-13 -84.5zM52 239q0 58 17.5 105t46.5 80t68 50.5t82 17.5t75.5 -15t66.5 -43h2l3 46h39v-480h-38l-4 62h-3
q-29 -29 -68.5 -51.5t-87.5 -22.5q-91 0 -145 64.5t-54 186.5zM254 686h38l84 -114h-36l-65 78h-4l-65 -78h-36zM446 637h-33l-91 111h47z" />
    <glyph glyph-name="uni1EA9.a" horiz-adv-x="544" 
d="M99 239q0 -48 10.5 -87t30.5 -66.5t49.5 -43t67.5 -15.5q40 0 76.5 20.5t74.5 58.5v285q-38 34 -71.5 48t-68.5 14q-36 0 -67 -16.5t-53.5 -45t-35.5 -68t-13 -84.5zM52 239q0 58 17.5 105t46.5 80t68 50.5t82 17.5t75.5 -15t66.5 -43h2l3 46h39v-480h-38l-4 62h-3
q-29 -29 -68.5 -51.5t-87.5 -22.5q-91 0 -145 64.5t-54 186.5zM254 686h38l84 -114h-36l-65 78h-4l-65 -78h-36zM368 653q21 8 35 18.5t14 27.5q0 43 -71 46l3 29q45 -2 75.5 -18t30.5 -52q0 -17 -7 -29.5t-18.5 -21.5t-25.5 -15t-28 -10z" />
    <glyph glyph-name="uni1EAB.a" horiz-adv-x="544" 
d="M99 239q0 -48 10.5 -87t30.5 -66.5t49.5 -43t67.5 -15.5q40 0 76.5 20.5t74.5 58.5v285q-38 34 -71.5 48t-68.5 14q-36 0 -67 -16.5t-53.5 -45t-35.5 -68t-13 -84.5zM52 239q0 58 17.5 105t46.5 80t68 50.5t82 17.5t75.5 -15t66.5 -43h2l3 46h39v-480h-38l-4 62h-3
q-29 -29 -68.5 -51.5t-87.5 -22.5q-91 0 -145 64.5t-54 186.5zM253 670h40l91 -100h-36l-73 69h-4l-73 -69h-36zM152 706q1 14 5.5 28t13 25t21.5 17.5t30 6.5q18 0 31.5 -7t24.5 -15.5t22 -15.5t24 -7q34 0 42 45h28q-1 -14 -5.5 -28t-13 -25t-21.5 -17.5t-30 -6.5
q-18 0 -31.5 7t-25 15.5t-22 15.5t-23.5 7q-35 0 -42 -45h-28z" />
    <glyph glyph-name="uni1EAD.a" horiz-adv-x="544" 
d="M99 239q0 -48 10.5 -87t30.5 -66.5t49.5 -43t67.5 -15.5q40 0 76.5 20.5t74.5 58.5v285q-38 34 -71.5 48t-68.5 14q-36 0 -67 -16.5t-53.5 -45t-35.5 -68t-13 -84.5zM52 239q0 58 17.5 105t46.5 80t68 50.5t82 17.5t75.5 -15t66.5 -43h2l3 46h39v-480h-38l-4 62h-3
q-29 -29 -68.5 -51.5t-87.5 -22.5q-91 0 -145 64.5t-54 186.5zM254 708h38l95 -136h-37l-75 99h-4l-75 -99h-37zM274 -194q-17 0 -27.5 11t-10.5 30q0 17 10.5 28t27.5 11t27.5 -11t10.5 -28q0 -19 -10.5 -30t-27.5 -11z" />
    <glyph glyph-name="uni1EAF.a" horiz-adv-x="544" 
d="M99 239q0 -48 10.5 -87t30.5 -66.5t49.5 -43t67.5 -15.5q40 0 76.5 20.5t74.5 58.5v285q-38 34 -71.5 48t-68.5 14q-36 0 -67 -16.5t-53.5 -45t-35.5 -68t-13 -84.5zM52 239q0 58 17.5 105t46.5 80t68 50.5t82 17.5t75.5 -15t66.5 -43h2l3 46h39v-480h-38l-4 62h-3
q-29 -29 -68.5 -51.5t-87.5 -22.5q-91 0 -145 64.5t-54 186.5zM315 777h46l-86 -110h-34zM273 576q-31 0 -52.5 11.5t-35.5 29t-21.5 38.5t-9.5 40h31q4 -33 25.5 -60.5t62.5 -27.5q21 0 36.5 7.5t26 20t17 28t8.5 32.5h31q-2 -19 -9.5 -40t-21.5 -38.5t-35.5 -29
t-52.5 -11.5z" />
    <glyph glyph-name="uni1EB1.a" horiz-adv-x="544" 
d="M99 239q0 -48 10.5 -87t30.5 -66.5t49.5 -43t67.5 -15.5q40 0 76.5 20.5t74.5 58.5v285q-38 34 -71.5 48t-68.5 14q-36 0 -67 -16.5t-53.5 -45t-35.5 -68t-13 -84.5zM52 239q0 58 17.5 105t46.5 80t68 50.5t82 17.5t75.5 -15t66.5 -43h2l3 46h39v-480h-38l-4 62h-3
q-29 -29 -68.5 -51.5t-87.5 -22.5q-91 0 -145 64.5t-54 186.5zM305 667h-34l-86 110h46zM273 576q-31 0 -52.5 11.5t-35.5 29t-21.5 38.5t-9.5 40h31q4 -33 25.5 -60.5t62.5 -27.5q21 0 36.5 7.5t26 20t17 28t8.5 32.5h31q-2 -19 -9.5 -40t-21.5 -38.5t-35.5 -29
t-52.5 -11.5z" />
    <glyph glyph-name="uni1EB3.a" horiz-adv-x="544" 
d="M99 239q0 -48 10.5 -87t30.5 -66.5t49.5 -43t67.5 -15.5q40 0 76.5 20.5t74.5 58.5v285q-38 34 -71.5 48t-68.5 14q-36 0 -67 -16.5t-53.5 -45t-35.5 -68t-13 -84.5zM52 239q0 58 17.5 105t46.5 80t68 50.5t82 17.5t75.5 -15t66.5 -43h2l3 46h39v-480h-38l-4 62h-3
q-29 -29 -68.5 -51.5t-87.5 -22.5q-91 0 -145 64.5t-54 186.5zM273 576q-31 0 -52.5 11.5t-35.5 29t-21.5 38.5t-9.5 40h31q4 -33 25.5 -60.5t62.5 -27.5q21 0 36.5 7.5t26 20t17 28t8.5 32.5h31q-2 -19 -9.5 -40t-21.5 -38.5t-35.5 -29t-52.5 -11.5zM243 701
q22 7 35.5 17.5t13.5 27.5q0 23 -17.5 33.5t-53.5 12.5l4 29q45 -2 75 -18t30 -51q0 -18 -7 -30.5t-18.5 -21.5t-25.5 -15t-28 -10z" />
    <glyph glyph-name="uni1EB5.a" horiz-adv-x="544" 
d="M99 239q0 -48 10.5 -87t30.5 -66.5t49.5 -43t67.5 -15.5q40 0 76.5 20.5t74.5 58.5v285q-38 34 -71.5 48t-68.5 14q-36 0 -67 -16.5t-53.5 -45t-35.5 -68t-13 -84.5zM52 239q0 58 17.5 105t46.5 80t68 50.5t82 17.5t75.5 -15t66.5 -43h2l3 46h39v-480h-38l-4 62h-3
q-29 -29 -68.5 -51.5t-87.5 -22.5q-91 0 -145 64.5t-54 186.5zM273 576q-31 0 -52 9t-35 23t-21 31.5t-9 35.5h31q5 -26 25.5 -47t60.5 -21t60.5 21t25.5 47h31q-2 -18 -9 -35.5t-21 -31.5t-35 -23t-52 -9zM152 706q1 14 5.5 28t13 25t21.5 17.5t30 6.5q18 0 31.5 -7
t24.5 -15.5t22 -15.5t24 -7q34 0 42 45h28q-1 -14 -5.5 -28t-13 -25t-21.5 -17.5t-30 -6.5q-18 0 -31.5 7t-25 15.5t-22 15.5t-23.5 7q-35 0 -42 -45h-28z" />
    <glyph glyph-name="uni1EB7.a" horiz-adv-x="544" 
d="M99 239q0 -48 10.5 -87t30.5 -66.5t49.5 -43t67.5 -15.5q40 0 76.5 20.5t74.5 58.5v285q-38 34 -71.5 48t-68.5 14q-36 0 -67 -16.5t-53.5 -45t-35.5 -68t-13 -84.5zM52 239q0 58 17.5 105t46.5 80t68 50.5t82 17.5t75.5 -15t66.5 -43h2l3 46h39v-480h-38l-4 62h-3
q-29 -29 -68.5 -51.5t-87.5 -22.5q-91 0 -145 64.5t-54 186.5zM273 576q-31 0 -52.5 11.5t-35.5 29t-21.5 38.5t-9.5 40h33q2 -16 8.5 -31.5t17 -28t25.5 -20t35 -7.5t35 7.5t25.5 20t17 28t8.5 31.5h33q-2 -19 -9.5 -40t-21.5 -38.5t-35.5 -29t-52.5 -11.5zM274 -194
q-17 0 -27.5 11t-10.5 30q0 17 10.5 28t27.5 11t27.5 -11t10.5 -28q0 -19 -10.5 -30t-27.5 -11z" />
    <glyph glyph-name="aogonek.a" horiz-adv-x="544" 
d="M99 239q0 -48 10.5 -87t30.5 -66.5t49.5 -43t67.5 -15.5q40 0 76.5 20.5t74.5 58.5v285q-38 34 -71.5 48t-68.5 14q-36 0 -67 -16.5t-53.5 -45t-35.5 -68t-13 -84.5zM52 239q0 58 17.5 105t46.5 80t68 50.5t82 17.5t75.5 -15t66.5 -43h2l3 46h39v-480q-86 -52 -86 -116
q0 -26 14.5 -39t34.5 -13q23 0 43 14l16 -26q-12 -10 -30.5 -16.5t-34.5 -6.5q-35 0 -58.5 20t-23.5 61q0 38 24 69t64 60l-5 55h-3q-29 -29 -68.5 -51.5t-87.5 -22.5q-91 0 -145 64.5t-54 186.5z" />
    <glyph glyph-name="g.a" horiz-adv-x="545" 
d="M110 -142q36 -26 73 -37.5t75 -11.5q75 0 112.5 41.5t37.5 114.5l1 109q-30 -29 -70 -51.5t-88 -22.5q-91 0 -144.5 63.5t-53.5 182.5q0 57 17 102.5t46.5 77.5t68 49t81.5 17t75.5 -15t64.5 -41h3l4 44h39v-522q0 -86 -50 -136.5t-144 -50.5q-48 0 -90.5 14t-77.5 38z
M258 39q40 0 76 20.5t74 58.5v273q-38 34 -71.5 48t-68.5 14q-36 0 -66.5 -16t-53.5 -43.5t-36 -65.5t-13 -82q0 -93 41 -150t118 -57z" />
    <glyph glyph-name="gcircumflex.a" horiz-adv-x="545" 
d="M110 -142q36 -26 73 -37.5t75 -11.5q75 0 112.5 41.5t37.5 114.5l1 109q-30 -29 -70 -51.5t-88 -22.5q-91 0 -144.5 63.5t-53.5 182.5q0 57 17 102.5t46.5 77.5t68 49t81.5 17t75.5 -15t64.5 -41h3l4 44h39v-522q0 -86 -50 -136.5t-144 -50.5q-48 0 -90.5 14t-77.5 38z
M258 39q40 0 76 20.5t74 58.5v273q-38 34 -71.5 48t-68.5 14q-36 0 -66.5 -16t-53.5 -43.5t-36 -65.5t-13 -82q0 -93 41 -150t118 -57zM260 708h38l95 -136h-37l-75 99h-4l-75 -99h-37z" />
    <glyph glyph-name="gbreve.a" horiz-adv-x="545" 
d="M110 -142q36 -26 73 -37.5t75 -11.5q75 0 112.5 41.5t37.5 114.5l1 109q-30 -29 -70 -51.5t-88 -22.5q-91 0 -144.5 63.5t-53.5 182.5q0 57 17 102.5t46.5 77.5t68 49t81.5 17t75.5 -15t64.5 -41h3l4 44h39v-522q0 -86 -50 -136.5t-144 -50.5q-48 0 -90.5 14t-77.5 38z
M258 39q40 0 76 20.5t74 58.5v273q-38 34 -71.5 48t-68.5 14q-36 0 -66.5 -16t-53.5 -43.5t-36 -65.5t-13 -82q0 -93 41 -150t118 -57zM279 576q-31 0 -52.5 11.5t-35.5 29t-21.5 38.5t-9.5 40h33q2 -16 8.5 -31.5t17 -28t25.5 -20t35 -7.5t35 7.5t25.5 20t17 28t8.5 31.5
h33q-2 -19 -9.5 -40t-21.5 -38.5t-35.5 -29t-52.5 -11.5z" />
    <glyph glyph-name="gdotaccent.a" horiz-adv-x="545" 
d="M110 -142q36 -26 73 -37.5t75 -11.5q75 0 112.5 41.5t37.5 114.5l1 109q-30 -29 -70 -51.5t-88 -22.5q-91 0 -144.5 63.5t-53.5 182.5q0 57 17 102.5t46.5 77.5t68 49t81.5 17t75.5 -15t64.5 -41h3l4 44h39v-522q0 -86 -50 -136.5t-144 -50.5q-48 0 -90.5 14t-77.5 38z
M258 39q40 0 76 20.5t74 58.5v273q-38 34 -71.5 48t-68.5 14q-36 0 -66.5 -16t-53.5 -43.5t-36 -65.5t-13 -82q0 -93 41 -150t118 -57zM279 596q-17 0 -27.5 11t-10.5 30q0 17 10.5 28t27.5 11t27.5 -11t10.5 -28q0 -19 -10.5 -30t-27.5 -11z" />
    <glyph glyph-name="uni0123.a" horiz-adv-x="545" 
d="M110 -142q36 -26 73 -37.5t75 -11.5q75 0 112.5 41.5t37.5 114.5l1 109q-30 -29 -70 -51.5t-88 -22.5q-91 0 -144.5 63.5t-53.5 182.5q0 57 17 102.5t46.5 77.5t68 49t81.5 17t75.5 -15t64.5 -41h3l4 44h39v-522q0 -86 -50 -136.5t-144 -50.5q-48 0 -90.5 14t-77.5 38z
M258 39q40 0 76 20.5t74 58.5v273q-38 34 -71.5 48t-68.5 14q-36 0 -66.5 -16t-53.5 -43.5t-36 -65.5t-13 -82q0 -93 41 -150t118 -57zM303 539q-42 8 -63 25t-21 48q0 19 10.5 34t28 25t40.5 16.5t47 9.5l6 -30q-42 -6 -67 -18t-25 -32q0 -23 17.5 -33.5t38.5 -15.5
l-12 -29v0z" />
    <glyph glyph-name="gcaron.a" horiz-adv-x="545" 
d="M110 -142q36 -26 73 -37.5t75 -11.5q75 0 112.5 41.5t37.5 114.5l1 109q-30 -29 -70 -51.5t-88 -22.5q-91 0 -144.5 63.5t-53.5 182.5q0 57 17 102.5t46.5 77.5t68 49t81.5 17t75.5 -15t64.5 -41h3l4 44h39v-522q0 -86 -50 -136.5t-144 -50.5q-48 0 -90.5 14t-77.5 38z
M258 39q40 0 76 20.5t74 58.5v273q-38 34 -71.5 48t-68.5 14q-36 0 -66.5 -16t-53.5 -43.5t-36 -65.5t-13 -82q0 -93 41 -150t118 -57zM165 708h37l75 -99h4l75 99h37l-95 -136h-38z" />
    <glyph glyph-name="uni1E21.a" horiz-adv-x="545" 
d="M110 -142q36 -26 73 -37.5t75 -11.5q75 0 112.5 41.5t37.5 114.5l1 109q-30 -29 -70 -51.5t-88 -22.5q-91 0 -144.5 63.5t-53.5 182.5q0 57 17 102.5t46.5 77.5t68 49t81.5 17t75.5 -15t64.5 -41h3l4 44h39v-522q0 -86 -50 -136.5t-144 -50.5q-48 0 -90.5 14t-77.5 38z
M258 39q40 0 76 20.5t74 58.5v273q-38 34 -71.5 48t-68.5 14q-36 0 -66.5 -16t-53.5 -43.5t-36 -65.5t-13 -82q0 -93 41 -150t118 -57zM166 642h226v-36h-226v36z" />
    <glyph glyph-name="uni00670303.a" horiz-adv-x="545" 
d="M110 -142q36 -26 73 -37.5t75 -11.5q75 0 112.5 41.5t37.5 114.5l1 109q-30 -29 -70 -51.5t-88 -22.5q-91 0 -144.5 63.5t-53.5 182.5q0 57 17 102.5t46.5 77.5t68 49t81.5 17t75.5 -15t64.5 -41h3l4 44h39v-522q0 -86 -50 -136.5t-144 -50.5q-48 0 -90.5 14t-77.5 38z
M258 39q40 0 76 20.5t74 58.5v273q-38 34 -71.5 48t-68.5 14q-36 0 -66.5 -16t-53.5 -43.5t-36 -65.5t-13 -82q0 -93 41 -150t118 -57zM155 581q1 16 5 32t12.5 28.5t21 20.5t30.5 8t33 -8.5t28 -19t25 -19t25 -8.5q16 0 25 14.5t13 40.5h30q-1 -16 -5 -32t-12.5 -28.5
t-21 -20.5t-30.5 -8t-33 8.5t-27.5 19t-25 19t-25.5 8.5q-30 0 -38 -55h-30v0z" />
    <glyph glyph-name="l.a" horiz-adv-x="229" 
d="M92 719h44v-719h-44v719z" />
    <glyph glyph-name="lacute.a" horiz-adv-x="229" 
d="M92 719h44v-719h-44v719zM111 760h-40l92 106h58z" />
    <glyph glyph-name="lcaron.a" horiz-adv-x="234" 
d="M92 719h44v-719h-44v719zM202 548l-3 206h38v-50l-8 -156h-27z" />
    <glyph glyph-name="ldot.a" horiz-adv-x="308" 
d="M92 719h44v-719h-44v719zM226 323q0 22 13 34t30 12t29.5 -12t12.5 -34q0 -21 -12.5 -33t-29.5 -12t-30 12t-13 33z" />
    <glyph glyph-name="uni013C.a" horiz-adv-x="229" 
d="M92 719h44v-719h-44v719zM89 -51q41 -8 62 -25t21 -48q0 -20 -10.5 -34.5t-28 -24.5t-40 -16.5t-46.5 -9.5l-7 30q42 6 67.5 18t25.5 32q0 23 -17.5 33.5t-39.5 15.5l13 29v0z" />
    <glyph glyph-name="uni1E37.a" horiz-adv-x="229" 
d="M92 719h44v-719h-44v719zM115 -194q-17 0 -27.5 11t-10.5 30q0 17 10.5 28t27.5 11t27.5 -11t10.5 -28q0 -19 -10.5 -30t-27.5 -11z" />
    <glyph glyph-name="uni1E39.a" horiz-adv-x="229" 
d="M92 719h44v-719h-44v719zM1 868h226v-36h-226v36zM115 -194q-17 0 -27.5 11t-10.5 30q0 17 10.5 28t27.5 11t27.5 -11t10.5 -28q0 -19 -10.5 -30t-27.5 -11z" />
    <glyph glyph-name="uni1E3B.a" horiz-adv-x="229" 
d="M92 719h44v-719h-44v719zM227 -160h-228v36h228v-36z" />
    <glyph glyph-name="lslash.a" horiz-adv-x="231" 
d="M211 437l-75 -49v-388h-44v363l-64 -42v42l64 42v314h44v-288l75 49v-43z" />
    <glyph glyph-name="fl.a" horiz-adv-x="510" 
d="M276 679q-15 8 -29.5 11t-28.5 3q-38 0 -56.5 -28.5t-18.5 -80.5v-104h111v-38h-111v-442h-44v442h-66v34l66 4v107q0 72 31 108t88 36q35 0 70 -16zM373 719h44v-719h-44v719z" />
    <glyph glyph-name="ampersand" unicode="&#x26;" horiz-adv-x="575" 
d="M230 26q41 0 78 19.5t68 51.5q-53 48 -102.5 108t-84.5 124q-22 -17 -41.5 -35t-34.5 -37.5t-23.5 -41t-8.5 -45.5q0 -33 12 -59.5t32 -45t47.5 -29t57.5 -10.5zM168 526q0 -33 10 -68.5t27 -71.5l48 36t41 38t28.5 41.5t10.5 47.5q0 16 -4 31.5t-12.5 27.5t-22 19.5
t-33.5 7.5q-44 0 -68.5 -32t-24.5 -77zM547 -12q-65 23 -141 83q-36 -37 -80 -60t-100 -23q-39 0 -74 12.5t-60.5 36t-40.5 56.5t-15 74q0 33 11.5 60t30 50.5t43 44t50.5 39.5q-20 42 -32 83.5t-12 79.5q0 32 10 59t28 46.5t43 30.5t55 11q54 0 82 -34t28 -86
q0 -32 -13 -59t-34.5 -50.5t-49 -45l-55.5 -42.5q35 -63 83.5 -122t99.5 -104q35 45 61 99.5t43 117.5h43q-20 -68 -48.5 -129.5t-68.5 -112.5q35 -28 67 -46.5t61 -29.5z" />
    <glyph glyph-name="zero" unicode="0" horiz-adv-x="479" 
d="M239 -12q-92 0 -141.5 86.5t-49.5 247.5q0 160 49.5 244.5t141.5 84.5t141.5 -84.5t49.5 -244.5q0 -161 -49.5 -247.5t-141.5 -86.5zM239 26q67 0 106.5 74.5t39.5 221.5t-39.5 219t-106.5 72q-66 0 -106 -72t-40 -219t40 -221.5t106 -74.5z" />
    <glyph glyph-name="one" unicode="1" horiz-adv-x="479" 
d="M84 39h150v530h-114v30q39 7 69.5 17t53.5 23h36v-600h139v-39h-334v39z" />
    <glyph glyph-name="two" unicode="2" horiz-adv-x="479" 
d="M41 28l138 143.5t98.5 116t59 97t19.5 86.5q0 60 -33.5 101t-105.5 41q-44 0 -82 -24t-67 -60l-29 28q36 40 79.5 67t102.5 27q86 0 133 -49t47 -130q0 -48 -21 -95.5t-59 -100t-92.5 -112l-120.5 -129.5q26 2 53.5 3.5t53.5 1.5h218v-40h-392v28z" />
    <glyph glyph-name="three" unicode="3" horiz-adv-x="479" 
d="M55 109q14 -16 31 -30.5t38.5 -26t48 -18.5t59.5 -7q32 0 59.5 10t47.5 28.5t31 44.5t11 58q0 33 -12.5 60t-39.5 46.5t-69 30.5t-102 11v39q55 0 93.5 11t62 29.5t34 44t10.5 54.5q0 54 -35 86.5t-94 32.5q-45 0 -82 -20.5t-65 -49.5l-26 30q33 32 75 55t98 23
q37 0 69 -10.5t55.5 -30t37 -48t13.5 -65.5q0 -63 -34.5 -101.5t-87.5 -56.5v-4q30 -6 56 -20.5t46 -35.5t31.5 -48.5t11.5 -61.5q0 -42 -15 -75.5t-41.5 -57t-62 -36t-76.5 -12.5q-38 0 -69 8t-55.5 21t-44 29t-34.5 32z" />
    <glyph glyph-name="four" unicode="4" horiz-adv-x="479" 
d="M310 229v234q0 22 1 55t3 55h-4q-12 -20 -25 -39l-27 -41l-188 -264h240zM448 191h-95v-191h-43v191h-294v26l297 422h40v-410h95v-38z" />
    <glyph glyph-name="five" unicode="5" horiz-adv-x="479" 
d="M51 105q14 -15 31 -29t38 -25t47 -17.5t59 -6.5q32 0 61 12.5t50.5 35t34.5 54t13 70.5q0 78 -42 121.5t-114 43.5q-37 0 -63.5 -11.5t-55.5 -31.5l-31 19l23 299h295v-39h-255l-20 -231q25 15 52 24.5t62 9.5q40 0 76 -12t62 -36.5t41.5 -63t15.5 -90.5
q0 -51 -17.5 -90.5t-46 -67t-65 -41.5t-75.5 -14q-38 0 -68.5 7.5t-55 20t-43.5 28t-34 30.5z" />
    <glyph glyph-name="six" unicode="6" horiz-adv-x="479" 
d="M262 26q28 0 51.5 12.5t40.5 34.5t27 51.5t10 63.5t-8 63.5t-24.5 51t-43 33.5t-62.5 12q-34 0 -75 -21.5t-80 -74.5q3 -51 14.5 -92.5t31.5 -71t49.5 -46t68.5 -16.5zM395 559q-21 26 -49 39.5t-59 13.5q-38 0 -72 -16t-60 -53t-41.5 -97.5t-16.5 -148.5q33 41 74.5 65
t86.5 24q85 0 131.5 -50.5t46.5 -147.5q0 -44 -14 -80.5t-38 -63t-55.5 -41.5t-67.5 -15q-97 0 -153 78t-56 224q0 100 19.5 169t52 112t75 61.5t88.5 18.5q45 0 77.5 -17t57.5 -45z" />
    <glyph glyph-name="seven" unicode="7" horiz-adv-x="479" 
d="M188 0q4 97 16.5 177.5t35.5 152t58 137t83 133.5h-337v39h393v-26q-57 -76 -94.5 -146t-60 -142.5t-32.5 -151.5t-14 -173h-48v0z" />
    <glyph glyph-name="eight" unicode="8" horiz-adv-x="479" 
d="M84 166q0 -30 12 -55.5t33 -44.5t50 -30t64 -11q34 0 61.5 10t47 28t30 42t10.5 51q0 37 -16.5 62.5t-44 45t-62.5 34l-72 29.5q-49 -29 -81 -68.5t-32 -92.5zM290 335q41 33 62.5 69.5t21.5 78.5q0 27 -9 50.5t-25.5 41.5t-41 28.5t-55.5 10.5q-27 0 -49.5 -9t-39 -24.5
t-25.5 -37.5t-9 -48q0 -34 14.5 -58.5t38.5 -43t54.5 -32.5t62.5 -26zM40 164q0 32 11.5 60t30 50.5t41 40t45.5 29.5v4q-18 12 -34.5 26.5t-29 33t-20.5 40t-8 47.5q0 34 13 63t35.5 49.5t53 32t65.5 11.5q41 0 73 -12.5t54.5 -35t34 -53t11.5 -66.5q0 -26 -9 -50.5
t-22.5 -45.5t-29.5 -38t-30 -28v-4q21 -13 41 -28t35.5 -34t25.5 -44t10 -57q0 -35 -14 -65.5t-39.5 -53t-61.5 -35.5t-79 -13q-44 0 -81 13.5t-64 37t-42.5 55.5t-15.5 70z" />
    <glyph glyph-name="nine" unicode="9" horiz-adv-x="479" 
d="M226 291q34 0 75 22.5t80 74.5q-3 51 -14.5 92.5t-32 71t-50 45.5t-68.5 16q-27 0 -51 -12.5t-41 -34t-27 -51t-10 -63.5q0 -35 8 -64.5t25 -51t43 -33.5t63 -12zM83 80q21 -26 49 -39.5t60 -13.5q38 0 72 16t60 53t41.5 97.5t16.5 148.5q-33 -40 -75 -64t-87 -24
q-84 0 -130.5 50.5t-46.5 147.5q0 43 14 80t38 63t55.5 41t67.5 15q96 0 152 -77.5t56 -223.5q0 -101 -19.5 -170t-51.5 -111.5t-75 -61.5t-89 -19q-45 0 -78 17t-57 45z" />
    <glyph glyph-name="zero.pnum" horiz-adv-x="513" 
d="M257 -12q-97 0 -149 87t-52 247q0 159 52 244t149 85t149 -85t52 -244q0 -160 -52 -247t-149 -87zM257 27q71 0 113 74.5t42 220.5t-42 218t-113 72q-72 0 -113.5 -72t-41.5 -218t41.5 -220.5t113.5 -74.5z" />
    <glyph glyph-name="one.pnum" horiz-adv-x="345" 
d="M172 569h-115v30q40 7 70 17t53 23h36v-639h-44v569z" />
    <glyph glyph-name="two.pnum" horiz-adv-x="486" 
d="M42 28l137 143.5t98.5 116t59 97t19.5 86.5q0 30 -8 56t-25 45t-43.5 30t-62.5 11q-44 0 -82 -24t-67 -60l-29 28q39 43 82.5 68.5t100.5 25.5q85 0 132 -49t47 -130q0 -48 -20.5 -95.5t-59 -100t-92.5 -112l-120 -129.5q26 2 53.5 3.5t53.5 1.5h216v-40h-390v28z" />
    <glyph glyph-name="three.pnum" horiz-adv-x="479" 
d="M55 109q14 -16 31 -30.5t38.5 -26t48 -18.5t59.5 -7q32 0 59.5 10t47.5 28.5t31 44.5t11 58q0 33 -12.5 60t-39.5 46.5t-69 30.5t-102 11v39q55 0 93.5 11t62 29.5t34 44t10.5 54.5q0 54 -35 86.5t-94 32.5q-45 0 -82 -20.5t-65 -49.5l-26 30q33 32 75 55t98 23
q37 0 69 -10.5t55.5 -30t37 -48t13.5 -65.5q0 -63 -34.5 -101.5t-87.5 -56.5v-4q30 -6 56 -20.5t46 -35.5t31.5 -48.5t11.5 -61.5q0 -42 -15 -75.5t-41.5 -57t-62 -36t-76.5 -12.5q-38 0 -69 8t-55.5 21t-44 29t-34.5 32z" />
    <glyph glyph-name="four.pnum" horiz-adv-x="495" 
d="M326 229v234q0 22 1 55t3 55h-4q-12 -20 -25 -39l-27 -41l-188 -264h240zM464 191h-95v-191h-43v191h-294v26l297 422h40v-410h95v-38z" />
    <glyph glyph-name="five.pnum" horiz-adv-x="479" 
d="M51 105q14 -15 31 -29t38 -25t47 -17.5t59 -6.5q32 0 61 12.5t50.5 35t34.5 54t13 70.5q0 78 -42 121.5t-114 43.5q-37 0 -63.5 -11.5t-55.5 -31.5l-31 19l23 299h295v-39h-255l-20 -231q25 15 52 24.5t62 9.5q40 0 76 -12t62 -36.5t41.5 -63t15.5 -90.5
q0 -51 -17.5 -90.5t-46 -67t-65 -41.5t-75.5 -14q-38 0 -68.5 7.5t-55 20t-43.5 28t-34 30.5z" />
    <glyph glyph-name="six.pnum" horiz-adv-x="504" 
d="M273 26q28 0 51.5 12.5t40.5 34.5t27 51.5t10 63.5t-8 63.5t-24.5 51t-43 33.5t-62.5 12q-34 0 -75 -21.5t-80 -74.5q3 -51 14.5 -92.5t31.5 -71t49.5 -46t68.5 -16.5zM406 559q-21 26 -49 39.5t-59 13.5q-38 0 -72 -16t-60 -53t-41.5 -97.5t-16.5 -148.5q33 41 74.5 65
t86.5 24q85 0 131.5 -50.5t46.5 -147.5q0 -44 -14 -80.5t-38 -63t-55.5 -41.5t-67.5 -15q-97 0 -153 78t-56 224q0 100 19.5 169t52 112t75 61.5t88.5 18.5q45 0 77.5 -17t57.5 -45z" />
    <glyph glyph-name="seven.pnum" horiz-adv-x="476" 
d="M178 0q4 97 16 177.5t34.5 152t56.5 137t82 133.5h-323v39h379v-26q-57 -76 -93.5 -146t-58 -142.5t-31.5 -151.5t-14 -173h-48v0z" />
    <glyph glyph-name="eight.pnum" horiz-adv-x="511" 
d="M101 166q0 -30 12 -55.5t33 -44.5t50 -30t64 -11q34 0 61.5 10t47 28t30 42t10.5 51q0 37 -16.5 62.5t-44 45t-62.5 34l-72 29.5q-49 -29 -81 -68.5t-32 -92.5zM307 335q41 33 62.5 69.5t21.5 78.5q0 27 -9 50.5t-25.5 41.5t-41 28.5t-55.5 10.5q-27 0 -49.5 -9
t-39 -24.5t-25.5 -37.5t-9 -48q0 -34 14.5 -58.5t38.5 -43t54.5 -32.5t62.5 -26zM57 164q0 32 11.5 60t30 50.5t41 40t45.5 29.5v4q-18 12 -34.5 26.5t-29 33t-20.5 40t-8 47.5q0 34 13 63t35.5 49.5t53 32t65.5 11.5q41 0 73 -12.5t54.5 -35t34 -53t11.5 -66.5
q0 -26 -9 -50.5t-22.5 -45.5t-29.5 -38t-30 -28v-4q21 -13 41 -28t35.5 -34t25.5 -44t10 -57q0 -35 -14 -65.5t-39.5 -53t-61.5 -35.5t-79 -13q-44 0 -81 13.5t-64 37t-42.5 55.5t-15.5 70z" />
    <glyph glyph-name="nine.pnum" horiz-adv-x="504" 
d="M235 291q34 0 75 22.5t80 74.5q-3 51 -14.5 92.5t-32 71t-50 45.5t-68.5 16q-27 0 -51 -12.5t-41 -34t-27 -51t-10 -63.5q0 -35 8 -64.5t25 -51t43 -33.5t63 -12zM92 80q21 -26 49 -39.5t60 -13.5q38 0 72 16t60 53t41.5 97.5t16.5 148.5q-33 -40 -75 -64t-87 -24
q-84 0 -130.5 50.5t-46.5 147.5q0 43 14 80t38 63t55.5 41t67.5 15q96 0 152 -77.5t56 -223.5q0 -101 -19.5 -170t-51.5 -111.5t-75 -61.5t-89 -19q-45 0 -78 17t-57 45z" />
    <glyph glyph-name="zero.tnum" horiz-adv-x="479" 
d="M239 -12q-89 0 -140 73.5t-51 224.5t51 224t140 73q90 0 140.5 -73t50.5 -224t-51 -224.5t-140 -73.5zM239 26q68 0 107 67.5t39 192.5t-39 192t-107 67q-67 0 -106.5 -67t-39.5 -192t39.5 -192.5t106.5 -67.5z" />
    <glyph glyph-name="one.tnum" horiz-adv-x="479" 
d="M84 39h150v461h-114v31q39 6 69.5 16.5t53.5 23.5h36v-532h139v-39h-334v39z" />
    <glyph glyph-name="two.tnum" horiz-adv-x="479" 
d="M41 28l137 119t98 97t59 82t20 76q0 29 -8 55t-25 45t-43 30t-62 11q-44 0 -82 -24t-67 -60l-29 27q36 41 79.5 68t102.5 27q85 0 132.5 -48.5t47.5 -129.5q0 -44 -21.5 -85t-60 -85t-91 -92.5l-114.5 -105.5q27 2 54.5 3.5t53.5 1.5h211v-40h-392v28z" />
    <glyph glyph-name="three.tnum" horiz-adv-x="479" 
d="M55 38q14 -16 31 -30.5t38.5 -26t48 -18.5t59.5 -7q32 0 59.5 10t47.5 29t31 45t11 58q0 33 -12.5 60t-39.5 46.5t-69 30.5t-102 11v39q55 0 93.5 11t62 30t34 44.5t10.5 54.5q0 54 -35 86.5t-94 32.5q-45 0 -82 -20t-65 -50l-26 31q33 32 75 55t98 23q37 0 69 -10.5
t55.5 -30.5t37 -48.5t13.5 -65.5q0 -63 -34.5 -102t-87.5 -57v-4q30 -6 56 -20t46 -35.5t31.5 -49.5t11.5 -62q0 -42 -15 -75.5t-41.5 -57t-62 -36t-76.5 -12.5q-38 0 -69 8t-55.5 21t-44 29t-34.5 32z" />
    <glyph glyph-name="four.tnum" horiz-adv-x="479" 
d="M310 140v254q0 23 1 54t3 53h-4l-25 -44.5t-27 -44.5l-188 -272h240zM448 101h-95v-172h-43v172h-294v27l297 443h40v-431h95v-39z" />
    <glyph glyph-name="five.tnum" horiz-adv-x="479" 
d="M51 34q14 -15 31 -29t38 -25t47 -17.5t59 -6.5q32 0 61 12.5t50.5 35.5t34.5 54.5t13 70.5q0 78 -42 121.5t-114 43.5q-37 0 -63.5 -11.5t-55.5 -30.5l-31 19l23 300h295v-40h-255l-20 -231q25 14 52 23.5t62 9.5q40 0 76 -12t62 -36.5t41.5 -63t15.5 -90.5
q0 -51 -17.5 -91t-46 -67.5t-65 -41.5t-75.5 -14q-38 0 -68.5 7.5t-55 20t-43.5 28t-34 31.5z" />
    <glyph glyph-name="six.tnum" horiz-adv-x="479" 
d="M264 26q28 0 51.5 12.5t40.5 34.5t27 51.5t10 63.5t-8 63.5t-24.5 51t-43 33.5t-62.5 12q-34 0 -75 -21.5t-80 -74.5q3 -51 14.5 -92.5t31.5 -71t49.5 -46t68.5 -16.5zM397 559q-21 26 -49 39.5t-59 13.5q-38 0 -72 -16t-60 -53t-41.5 -97.5t-16.5 -148.5q33 41 74.5 65
t86.5 24q85 0 131.5 -50.5t46.5 -147.5q0 -44 -14 -80.5t-38 -63t-55.5 -41.5t-67.5 -15q-97 0 -153 78t-56 224q0 100 19.5 169t52 112t75 61.5t88.5 18.5q45 0 77.5 -17t57.5 -45z" />
    <glyph glyph-name="seven.tnum" horiz-adv-x="479" 
d="M188 -71q4 97 16.5 177.5t35.5 152.5t58 138t83 134h-337v40h393v-27q-57 -76 -94.5 -146.5t-60 -143.5t-32.5 -152t-14 -173h-48v0z" />
    <glyph glyph-name="eight.tnum" horiz-adv-x="479" 
d="M84 166q0 -30 12 -55.5t33 -44.5t50 -30t64 -11q34 0 61.5 10t47 28t30 42t10.5 51q0 37 -16.5 62.5t-44 45t-62.5 34l-72 29.5q-49 -29 -81 -68.5t-32 -92.5zM290 335q41 33 62.5 69.5t21.5 78.5q0 27 -9 50.5t-25.5 41.5t-41 28.5t-55.5 10.5q-27 0 -49.5 -9t-39 -24.5
t-25.5 -37.5t-9 -48q0 -34 14.5 -58.5t38.5 -43t54.5 -32.5t62.5 -26zM40 164q0 32 11.5 60t30 50.5t41 40t45.5 29.5v4q-18 12 -34.5 26.5t-29 33t-20.5 40t-8 47.5q0 34 13 63t35.5 49.5t53 32t65.5 11.5q41 0 73 -12.5t54.5 -35t34 -53t11.5 -66.5q0 -26 -9 -50.5
t-22.5 -45.5t-29.5 -38t-30 -28v-4q21 -13 41 -28t35.5 -34t25.5 -44t10 -57q0 -35 -14 -65.5t-39.5 -53t-61.5 -35.5t-79 -13q-44 0 -81 13.5t-64 37t-42.5 55.5t-15.5 70z" />
    <glyph glyph-name="nine.tnum" horiz-adv-x="479" 
d="M219 206q38 0 80.5 22t82.5 76q-2 54 -13 98.5t-31.5 76t-51 49t-70.5 17.5q-30 0 -55.5 -13t-44 -36.5t-29 -54.5t-10.5 -67t7.5 -67t24.5 -53.5t44 -35t66 -12.5zM81 8q48 -52 116 -52q36 0 68.5 15.5t57.5 51t41 93t18 141.5q-33 -41 -76 -64.5t-92 -23.5
q-89 0 -135 53t-46 152q0 45 15 83.5t40 66.5t58.5 43.5t70.5 15.5q99 0 154.5 -79.5t55.5 -223.5q0 -99 -18.5 -168.5t-50 -112.5t-73.5 -62.5t-88 -19.5t-79.5 16t-60.5 43z" />
    <glyph glyph-name="zero.onum" horiz-adv-x="502" 
d="M247 -12q-89 0 -140 73.5t-51 224.5t51 224t140 73q90 0 140.5 -73t50.5 -224t-51 -224.5t-140 -73.5zM247 26q68 0 107 67.5t39 192.5t-39 192t-107 67q-67 0 -106.5 -67t-39.5 -192t39.5 -192.5t106.5 -67.5z" />
    <glyph glyph-name="one.onum" horiz-adv-x="345" 
d="M172 500h-115v31q40 6 70 16.5t53 23.5h36v-571h-44v500z" />
    <glyph glyph-name="two.onum" horiz-adv-x="485" 
d="M49 28l135.5 119t95.5 97t56.5 82t18.5 76q0 29 -7.5 55t-24 45t-42 30t-61.5 11q-44 0 -80 -24t-65 -60l-29 27q36 40 77.5 67.5t100.5 27.5q85 0 130.5 -48.5t45.5 -129.5q0 -44 -20.5 -85t-57 -85t-88 -92.5l-112.5 -105.5q26 2 53.5 3.5t53.5 1.5h202v-40h-382v28z
" />
    <glyph glyph-name="three.onum" horiz-adv-x="479" 
d="M55 38q14 -16 31 -30.5t38.5 -26t48 -18.5t59.5 -7q32 0 59.5 10t47.5 29t31 45t11 58q0 33 -12.5 60t-39.5 46.5t-69 30.5t-102 11v39q55 0 93.5 11t62 30t34 44.5t10.5 54.5q0 54 -35 86.5t-94 32.5q-45 0 -82 -20t-65 -50l-26 31q33 32 75 55t98 23q37 0 69 -10.5
t55.5 -30.5t37 -48.5t13.5 -65.5q0 -63 -34.5 -102t-87.5 -57v-4q30 -6 56 -20t46 -35.5t31.5 -49.5t11.5 -62q0 -42 -15 -75.5t-41.5 -57t-62 -36t-76.5 -12.5q-38 0 -69 8t-55.5 21t-44 29t-34.5 32z" />
    <glyph glyph-name="four.onum" horiz-adv-x="502" 
d="M318 140v254q0 23 1 54t3 53h-4l-25 -44.5t-27 -44.5l-188 -272h240zM456 101h-95v-172h-43v172h-294v27l297 443h40v-431h95v-39z" />
    <glyph glyph-name="five.onum" horiz-adv-x="479" 
d="M51 34q14 -15 31 -29t38 -25t47 -17.5t59 -6.5q32 0 61 12.5t50.5 35.5t34.5 54.5t13 70.5q0 78 -42 121.5t-114 43.5q-37 0 -63.5 -11.5t-55.5 -30.5l-31 19l23 300h295v-40h-255l-20 -231q25 14 52 23.5t62 9.5q40 0 76 -12t62 -36.5t41.5 -63t15.5 -90.5
q0 -51 -17.5 -91t-46 -67.5t-65 -41.5t-75.5 -14q-38 0 -68.5 7.5t-55 20t-43.5 28t-34 31.5z" />
    <glyph glyph-name="six.onum" horiz-adv-x="502" 
d="M272 26q28 0 51.5 12.5t40.5 34.5t27 51.5t10 63.5t-8 63.5t-24.5 51t-43 33.5t-62.5 12q-34 0 -75 -21.5t-80 -74.5q3 -51 14.5 -92.5t31.5 -71t49.5 -46t68.5 -16.5zM405 559q-21 26 -49 39.5t-59 13.5q-38 0 -72 -16t-60 -53t-41.5 -97.5t-16.5 -148.5q33 41 74.5 65
t86.5 24q85 0 131.5 -50.5t46.5 -147.5q0 -44 -14 -80.5t-38 -63t-55.5 -41.5t-67.5 -15q-97 0 -153 78t-56 224q0 100 19.5 169t52 112t75 61.5t88.5 18.5q45 0 77.5 -17t57.5 -45z" />
    <glyph glyph-name="seven.onum" horiz-adv-x="474" 
d="M177 -71q4 97 16.5 177.5t35 152.5t56.5 138t82 134h-323v40h379v-27q-57 -76 -93.5 -146.5t-58.5 -143t-32 -152t-14 -173.5h-48v0z" />
    <glyph glyph-name="eight.onum" horiz-adv-x="502" 
d="M92 166q0 -30 12 -55.5t33 -44.5t50 -30t64 -11q34 0 61.5 10t47 28t30 42t10.5 51q0 37 -16.5 62.5t-44 45t-62.5 34l-72 29.5q-49 -29 -81 -68.5t-32 -92.5zM298 335q41 33 62.5 69.5t21.5 78.5q0 27 -9 50.5t-25.5 41.5t-41 28.5t-55.5 10.5q-27 0 -49.5 -9t-39 -24.5
t-25.5 -37.5t-9 -48q0 -34 14.5 -58.5t38.5 -43t54.5 -32.5t62.5 -26zM48 164q0 32 11.5 60t30 50.5t41 40t45.5 29.5v4q-18 12 -34.5 26.5t-29 33t-20.5 40t-8 47.5q0 34 13 63t35.5 49.5t53 32t65.5 11.5q41 0 73 -12.5t54.5 -35t34 -53t11.5 -66.5q0 -26 -9 -50.5
t-22.5 -45.5t-29.5 -38t-30 -28v-4q21 -13 41 -28t35.5 -34t25.5 -44t10 -57q0 -35 -14 -65.5t-39.5 -53t-61.5 -35.5t-79 -13q-44 0 -81 13.5t-64 37t-42.5 55.5t-15.5 70z" />
    <glyph glyph-name="nine.onum" horiz-adv-x="502" 
d="M227 206q38 0 80.5 22t82.5 76q-2 54 -13 98.5t-31.5 76t-51 49t-70.5 17.5q-30 0 -55.5 -13t-44 -36.5t-29 -54.5t-10.5 -67t7.5 -67t24.5 -53.5t44 -35t66 -12.5zM89 8q48 -52 116 -52q36 0 68.5 15.5t57.5 51t41 93t18 141.5q-33 -41 -76 -64.5t-92 -23.5
q-89 0 -135 53t-46 152q0 45 15 83.5t40 66.5t58.5 43.5t70.5 15.5q99 0 154.5 -79.5t55.5 -223.5q0 -99 -18.5 -168.5t-50 -112.5t-73.5 -62.5t-88 -19.5t-79.5 16t-60.5 43z" />
    <glyph glyph-name="period" unicode="." horiz-adv-x="219" 
d="M67 33q0 22 13 34t30 12t29.5 -12t12.5 -34q0 -21 -12.5 -33t-29.5 -12t-30 12t-13 33z" />
    <glyph glyph-name="comma" unicode="," horiz-adv-x="219" 
d="M48 -125q34 18 55 48.5t22 72.5q-4 -1 -12 -1q-17 0 -29.5 11t-12.5 31t13 31t30 11q23 0 37 -19t14 -52q0 -55 -29 -97t-74 -66z" />
    <glyph glyph-name="colon" unicode=":" horiz-adv-x="219" 
d="M67 415q0 22 13 34t30 12t29.5 -12t12.5 -34q0 -21 -12.5 -33t-29.5 -12t-30 12t-13 33zM67 33q0 22 13 34t30 12t29.5 -12t12.5 -34q0 -21 -12.5 -33t-29.5 -12t-30 12t-13 33z" />
    <glyph glyph-name="semicolon" unicode=";" horiz-adv-x="219" 
d="M67 415q0 22 13 34t30 12t29.5 -12t12.5 -34q0 -21 -12.5 -33t-29.5 -12t-30 12t-13 33zM48 -125q34 18 55 48.5t22 72.5q-4 -1 -12 -1q-17 0 -29.5 11t-12.5 31t13 31t30 11q23 0 37 -19t14 -52q0 -55 -29 -97t-74 -66z" />
    <glyph glyph-name="ellipsis" unicode="&#x2026;" horiz-adv-x="930" 
d="M104 33q0 22 13 34t30 12t29.5 -12t12.5 -34q0 -21 -12.5 -33t-29.5 -12t-30 12t-13 33zM441 33q0 22 13 34t30 12t29.5 -12t12.5 -34q0 -21 -12.5 -33t-29.5 -12t-30 12t-13 33zM778 33q0 22 13 34t30 12t29.5 -12t12.5 -34q0 -21 -12.5 -33t-29.5 -12t-30 12t-13 33z
" />
    <glyph glyph-name="exclam" unicode="!" horiz-adv-x="259" 
d="M107 599v71h46l-1 -71l-6 -420h-33zM87 33q0 22 13 34t30 12t29.5 -12t12.5 -34q0 -21 -12.5 -33t-29.5 -12t-30 12t-13 33z" />
    <glyph glyph-name="exclamdown" unicode="&#xa1;" horiz-adv-x="259" 
d="M152 -119l1 -71h-46v71l6 420h33zM172 448q0 -23 -12.5 -35t-29.5 -12t-30 12t-13 35q0 20 13 32t30 12t29.5 -12t12.5 -32z" />
    <glyph glyph-name="question" unicode="?" horiz-adv-x="402" 
d="M163 179q-6 41 2.5 74.5t24.5 62t36 53.5l38 49.5t30 50.5t12 57q0 23 -6.5 44.5t-20.5 37.5t-35.5 25.5t-50.5 9.5q-37 0 -70.5 -16.5t-58.5 -47.5l-27 25q29 33 68 55.5t91 22.5q37 0 66 -11.5t49 -32t30.5 -48.5t10.5 -61q0 -34 -12.5 -62.5t-30.5 -54.5t-38.5 -51.5
t-37 -53t-26 -59t-4.5 -69.5h-40zM144 33q0 22 12.5 34t29.5 12t30 -12t13 -34q0 -21 -13 -33t-30 -12t-29.5 12t-12.5 33z" />
    <glyph glyph-name="questiondown" unicode="&#xbf;" horiz-adv-x="402" 
d="M240 301q5 -41 -3.5 -74.5t-24.5 -62t-36 -53.5l-38 -49.5t-30 -50.5t-12 -57q0 -23 6.5 -44t20.5 -37.5t35.5 -26t51.5 -9.5q36 0 69.5 17t58.5 47l28 -25q-29 -32 -68.5 -55t-90.5 -23q-37 0 -66 11.5t-49 32t-30.5 48.5t-10.5 61q0 34 12.5 62.5t30.5 55t38.5 51.5
t37 52.5t25.5 59t4 69.5h41zM258 448q0 -23 -12.5 -35t-29.5 -12t-29.5 12t-12.5 35q0 20 12.5 32t29.5 12t29.5 -12t12.5 -32z" />
    <glyph glyph-name="quotesingle" unicode="'" horiz-adv-x="219" 
d="M84 624l-1 69h51v-69l-9 -147h-33z" />
    <glyph glyph-name="quotedbl" unicode="&#x22;" horiz-adv-x="360" 
d="M84 624l-1 69h51v-69l-9 -147h-33zM225 624l-1 69h51v-69l-9 -147h-33z" />
    <glyph glyph-name="quoteleft" unicode="&#x2018;" horiz-adv-x="219" 
d="M161 680q-33 -27 -50 -54t-17 -70q2 1 8 1q15 0 27.5 -9t12.5 -28t-11.5 -29.5t-28.5 -10.5q-20 0 -32 17.5t-12 49.5q0 54 22.5 92t62.5 64z" />
    <glyph glyph-name="quoteright" unicode="&#x2019;" horiz-adv-x="219" 
d="M58 500q33 27 50 54t17 70q-2 -1 -8 -1q-14 0 -26.5 9t-12.5 28t11 29.5t28 10.5q20 0 32.5 -17.5t12.5 -49.5q0 -54 -22.5 -92t-63.5 -64z" />
    <glyph glyph-name="quotedblleft" unicode="&#x201c;" horiz-adv-x="360" 
d="M161 680q-33 -27 -50 -54t-17 -70q2 1 8 1q15 0 27.5 -9t12.5 -28t-11.5 -29.5t-28.5 -10.5q-20 0 -32 17.5t-12 49.5q0 54 22.5 92t62.5 64zM302 680q-33 -27 -50 -54t-17 -70q2 1 8 1q15 0 27.5 -9t12.5 -28t-11.5 -29.5t-28.5 -10.5q-20 0 -32 17.5t-12 49.5
q0 54 22.5 92t62.5 64z" />
    <glyph glyph-name="quotedblright" unicode="&#x201d;" horiz-adv-x="360" 
d="M58 500q33 27 50 54t17 70q-2 -1 -8 -1q-14 0 -26.5 9t-12.5 28t11 29.5t28 10.5q20 0 32.5 -17.5t12.5 -49.5q0 -54 -22.5 -92t-63.5 -64zM199 500q33 27 50 54t17 70q-2 -1 -8 -1q-14 0 -26.5 9t-12.5 28t11 29.5t28 10.5q20 0 32.5 -17.5t12.5 -49.5q0 -54 -22.5 -92
t-63.5 -64z" />
    <glyph glyph-name="quotesinglbase" unicode="&#x201a;" horiz-adv-x="219" 
d="M58 -107q33 27 50 54t17 70q-2 -1 -8 -1q-14 0 -26.5 9t-12.5 28t11 29.5t28 10.5q20 0 32.5 -17.5t12.5 -49.5q0 -54 -22.5 -92t-63.5 -64z" />
    <glyph glyph-name="quotedblbase" unicode="&#x201e;" horiz-adv-x="360" 
d="M58 -107q33 27 50 54t17 70q-2 -1 -8 -1q-14 0 -26.5 9t-12.5 28t11 29.5t28 10.5q20 0 32.5 -17.5t12.5 -49.5q0 -54 -22.5 -92t-63.5 -64zM199 -107q33 27 50 54t17 70q-2 -1 -8 -1q-14 0 -26.5 9t-12.5 28t11 29.5t28 10.5q20 0 32.5 -17.5t12.5 -49.5
q0 -54 -22.5 -92t-63.5 -64z" />
    <glyph glyph-name="guilsinglleft" unicode="&#x2039;" horiz-adv-x="259" 
d="M43 233v38l137 161l25 -21l-123 -159l123 -161l-25 -19z" />
    <glyph glyph-name="guilsinglright" unicode="&#x203a;" horiz-adv-x="259" 
d="M176 252l-122 159l24 21l138 -161v-38l-138 -161l-24 19z" />
    <glyph glyph-name="guillemotleft" unicode="&#xab;" horiz-adv-x="400" 
d="M43 233v38l137 161l25 -21l-123 -159l123 -161l-25 -19zM184 233v38l137 161l25 -21l-123 -159l123 -161l-25 -19z" />
    <glyph glyph-name="guillemotright" unicode="&#xbb;" horiz-adv-x="400" 
d="M176 252l-122 159l24 21l138 -161v-38l-138 -161l-24 19zM317 252l-122 159l24 21l138 -161v-38l-138 -161l-24 19z" />
    <glyph glyph-name="hyphen" unicode="-" horiz-adv-x="299" 
d="M40 269h220v-39h-220v39z" />
    <glyph glyph-name="uni00AD" unicode="&#xad;" horiz-adv-x="299" 
d="M40 269h220v-39h-220v39z" />
    <glyph glyph-name="endash" unicode="&#x2013;" horiz-adv-x="480" 
d="M40 268h400v-36h-400v36z" />
    <glyph glyph-name="emdash" unicode="&#x2014;" horiz-adv-x="800" 
d="M40 268h720v-36h-720v36z" />
    <glyph glyph-name="figuredash" unicode="&#x2012;" horiz-adv-x="479" 
d="M40 268h400v-36h-400v36z" />
    <glyph glyph-name="uni2015" unicode="&#x2015;" horiz-adv-x="800" 
d="M40 268h720v-36h-720v36z" />
    <glyph glyph-name="periodcentered" unicode="&#xb7;" horiz-adv-x="219" 
d="M67 322q0 22 13 34t30 12t29.5 -12t12.5 -34q0 -21 -12.5 -33t-29.5 -12t-30 12t-13 33z" />
    <glyph glyph-name="bullet" unicode="&#x2022;" horiz-adv-x="281" 
d="M140 154q-19 0 -37 7.5t-32 22t-22.5 34.5t-8.5 46q0 25 8.5 45.5t22.5 34.5t32 22t37 8t37.5 -8t32.5 -22t22.5 -34.5t8.5 -45.5q0 -26 -8.5 -46t-22.5 -34.5t-32.5 -22t-37.5 -7.5z" />
    <glyph glyph-name="underscore" unicode="_" horiz-adv-x="500" 
d="M488 -79v-38h-476v38h476z" />
    <glyph glyph-name="parenleft" unicode="(" horiz-adv-x="279" 
d="M220 -175q-62 100 -97 210.5t-35 242.5t35 242.5t97 210.5l27 -16q-60 -95 -90 -206.5t-30 -230.5t30 -230.5t90 -206.5l-27 -16v0z" />
    </font>
</defs>
</svg>
