<?xml version="1.0" standalone="no"?>
<!DOCTYPE svg PUBLIC "-//W3C//DTD SVG 1.1//EN" "http://www.w3.org/Graphics/SVG/1.1/DTD/svg11.dtd" >
<svg>
<metadata>
Created by FontForge 20090622 at Thu Aug 11 10:37:05 2016
 By deploy user
Copyright 2010, 2012 Adobe Systems Incorporated. All Rights Reserved.
</metadata>
<defs>
<font id="SourceSansPro-SemiboldIt" horiz-adv-x="0" >
  <font-face 
    font-family="Source Sans Pro Semibold"
    font-weight="600"
    font-style="italic"
    font-stretch="normal"
    units-per-em="1000"
    panose-1="2 11 6 3 3 4 3 9 2 4"
    ascent="750"
    descent="-250"
    x-height="491"
    cap-height="654"
    bbox="-213 -290 1136 958"
    underline-thickness="50"
    underline-position="-50"
    slope="-11"
    unicode-range="U+000D-U+FB02"
  />
<missing-glyph horiz-adv-x="646" 
d="M162 660h481l-130 -660h-481zM221 554l-85 -428l150 214zM460 126l88 428l-152 -214zM184 72h205l-33 110l-25 99h-4l-65 -99zM418 491l67 97h-190l29 -97l26 -95h4z" />
    <glyph glyph-name="f_f" unicode="ff" horiz-adv-x="589" 
d="M670 617q-10 5 -23 10t-28 5q-31 0 -49.5 -19.5t-26.5 -61.5l-12 -60h92l-17 -85h-92l-82 -406h-107l82 406h-179l-81 -406h-107l82 406h-64l16 80l64 5l10 47q16 75 59 122.5t118 47.5q29 0 53.5 -6.5t47.5 -17.5l-36 -77q-11 5 -24.5 10t-30.5 5q-32 0 -52 -19.5
t-28 -61.5l-10 -50h179l12 57q15 75 57 122.5t116 47.5q28 0 51.5 -6.5t44.5 -17.5z" />
    <glyph glyph-name="f_t" unicode="ft" horiz-adv-x="606" 
d="M438 162q-3 -18 -3 -35q0 -27 13 -40.5t44 -13.5q13 0 24 4t22 9l20 -76q-18 -8 -44 -15t-60 -7q-69 0 -98.5 34.5t-29.5 85.5q0 28 6 58l50 240h-154l-81 -406h-107l81 406h-63l16 80l64 5l12 57q15 75 57 122.5t116 47.5q28 0 51.5 -6.5t45.5 -17.5l-36 -77
q-9 5 -22.5 10t-28.5 5q-30 0 -49 -19.5t-27 -61.5l-12 -60h159l39 132h90l-26 -132h118l-17 -85h-120z" />
    <glyph glyph-name=".notdef" horiz-adv-x="646" 
d="M162 660h481l-130 -660h-481zM221 554l-85 -428l150 214zM460 126l88 428l-152 -214zM184 72h205l-33 110l-25 99h-4l-65 -99zM418 491l67 97h-190l29 -97l26 -95h4z" />
    <glyph glyph-name="NULL" 
 />
    <glyph glyph-name="NULL" 
 />
    <glyph glyph-name="CR" unicode="&#xd;" horiz-adv-x="195" 
 />
    <glyph glyph-name="space" unicode=" " horiz-adv-x="195" 
 />
    <glyph glyph-name="A" unicode="A" horiz-adv-x="529" 
d="M359 266l-7 99q-3 51 -6.5 100t-5.5 103h-4l-46.5 -103t-48.5 -100l-49 -99h167zM365 184h-213l-91 -184h-119l350 654h128l70 -654h-112z" />
    <glyph glyph-name="B" unicode="B" horiz-adv-x="594" 
d="M162 654h188q96 0 153.5 -36.5t57.5 -110.5q0 -31 -11.5 -57.5t-31 -47.5t-45.5 -36t-56 -22l-1 -4q53 -13 84.5 -44t31.5 -84q0 -56 -21.5 -96.5t-59 -66t-88 -37.5t-108.5 -12h-223zM295 380q81 0 118.5 30t37.5 80q0 38 -30 59t-93 21h-74l-39 -190h80zM255 84
q81 0 127 30t46 93q0 45 -32 71t-95 26h-101l-44 -220h99z" />
    <glyph glyph-name="C" unicode="C" horiz-adv-x="559" 
d="M57 257q0 81 25.5 155t71 130.5t108.5 90t138 33.5q57 0 99 -27.5t68 -72.5l-74 -57q-19 30 -43 47t-56 17q-50 0 -91.5 -27t-71.5 -70.5t-47 -98.5t-17 -112q0 -41 8.5 -75t27 -58t47 -37.5t68.5 -13.5q35 0 65.5 15t59.5 39l47 -69q-33 -29 -81.5 -53.5t-111.5 -24.5
q-56 0 -100.5 19t-75.5 54t-47.5 84.5t-16.5 111.5z" />
    <glyph glyph-name="D" unicode="D" horiz-adv-x="604" 
d="M162 654h133q137 0 210 -65.5t73 -190.5q0 -93 -25.5 -167t-72 -125t-112 -78.5t-146.5 -27.5h-190zM220 87q55 0 100.5 20.5t78.5 59.5t51 95.5t18 128.5q0 88 -46 132t-130 44h-40l-95 -480h63z" />
    <glyph glyph-name="E" unicode="E" horiz-adv-x="515" 
d="M162 654h375l-18 -91h-268l-35 -176h227l-18 -91h-226l-42 -205h276l-18 -91h-383z" />
    <glyph glyph-name="F" unicode="F" horiz-adv-x="489" 
d="M162 654h375l-18 -91h-268l-38 -193h227l-18 -91h-226l-56 -279h-108z" />
    <glyph glyph-name="G" unicode="G" horiz-adv-x="600" 
d="M57 257q0 81 25.5 155.5t72 130.5t111.5 89.5t144 33.5q61 0 104 -27.5t69 -72.5l-74 -57q-19 30 -44 47t-61 17q-53 0 -97 -27t-75 -70.5t-48 -98.5t-17 -112q0 -41 8.5 -74.5t27.5 -58.5t49 -38.5t73 -13.5q28 0 51 8.5t40 22.5l32 154h-121l17 88h217l-59 -298
q-36 -29 -85.5 -48t-109.5 -19q-120 0 -185 72t-65 197z" />
    <glyph glyph-name="H" unicode="H" horiz-adv-x="638" 
d="M162 654h108l-54 -265h259l53 265h108l-131 -654h-108l60 295h-259l-58 -295h-108z" />
    <glyph glyph-name="I" unicode="I" horiz-adv-x="273" 
d="M162 654h108l-130 -654h-108z" />
    <glyph glyph-name="J" unicode="J" horiz-adv-x="474" 
d="M385 194q-8 -44 -25.5 -81.5t-44 -65t-63.5 -43.5t-84 -16q-58 0 -103 26.5t-70 73.5l68 63q14 -31 40.5 -50.5t64.5 -19.5q45 0 72.5 33.5t40.5 96.5l88 443h108l-92 -460v0z" />
    <glyph glyph-name="K" unicode="K" horiz-adv-x="582" 
d="M162 654h108l-59 -296h4l286 296h119l-241 -260l147 -394h-112l-115 326l-118 -120l-41 -206h-108z" />
    <glyph glyph-name="L" unicode="L" horiz-adv-x="481" 
d="M162 654h108l-112 -563h261l-18 -91h-369z" />
    <glyph glyph-name="M" unicode="M" horiz-adv-x="723" 
d="M162 654h120l52 -327l19 -126h4l65 126l180 327h119l-131 -654h-102l65 314q5 23 11.5 49.5l13.5 53.5l14 53t14 49h-3l-80 -148l-173 -307h-50l-54 307l-21 148h-4l-11.5 -102.5t-15.5 -102.5l-63 -314h-99z" />
    <glyph glyph-name="N" unicode="N" horiz-adv-x="631" 
d="M162 654h106l128 -379l38 -141h4q6 51 12 110t17 113l59 297h104l-131 -654h-105l-127 378l-38 143h-4l-13 -110t-18 -111l-59 -300h-103z" />
    <glyph glyph-name="O" unicode="O" horiz-adv-x="647" 
d="M294 -12q-55 0 -99 19t-74.5 55t-46.5 87t-16 114q0 81 25.5 154t69.5 128.5t103.5 88t127.5 32.5q55 0 99 -19t74.5 -55t46.5 -87t16 -114q0 -81 -25 -154t-69 -128.5t-103.5 -88t-128.5 -32.5zM378 573q-44 0 -82 -26t-66 -68t-44.5 -96.5t-16.5 -111.5
q0 -88 32.5 -139t98.5 -51q43 0 81.5 26t67 68t45 96.5t16.5 111.5q0 88 -33 139t-99 51z" />
    <glyph glyph-name="P" unicode="P" horiz-adv-x="567" 
d="M162 654h196q47 0 86.5 -9t68 -29.5t44.5 -52t16 -76.5q0 -64 -22.5 -110t-62 -75t-93.5 -43t-116 -14h-91l-48 -245h-108zM288 331q87 0 132.5 35.5t45.5 105.5q0 51 -33 73.5t-95 22.5h-86l-46 -237h82z" />
    <glyph glyph-name="Q" unicode="Q" horiz-adv-x="647" 
d="M378 573q-44 0 -82 -26t-66 -68t-44.5 -96.5t-16.5 -111.5q0 -88 32.5 -139t98.5 -51q43 0 81.5 26t67 68t45 96.5t16.5 111.5q0 88 -33 139t-99 51zM544 -156q-17 -6 -36.5 -9.5t-36.5 -3.5q-92 0 -156.5 41t-94.5 126q-77 23 -119.5 91.5t-42.5 173.5q0 81 25.5 154
t69.5 128.5t103.5 88t127.5 32.5q55 0 99 -19t74.5 -55t46.5 -87t16 -114q0 -75 -22 -143.5t-60.5 -122.5t-91 -89.5t-114.5 -44.5q20 -38 59 -55t87 -17q17 0 31.5 2t28.5 6z" />
    <glyph glyph-name="R" unicode="R" horiz-adv-x="576" 
d="M292 344q84 0 127 36.5t43 98.5q0 48 -32.5 68.5t-95.5 20.5h-82l-43 -224h83zM355 654q47 0 86 -8.5t67.5 -28t44.5 -50t16 -73.5q0 -46 -13.5 -82.5t-37.5 -64.5t-56.5 -47t-71.5 -29l108 -271h-115l-95 258h-97l-51 -258h-108l130 654h193z" />
    <glyph glyph-name="S" unicode="S" horiz-adv-x="518" 
d="M86 167q29 -40 69 -63.5t88 -23.5q51 0 84 26.5t33 72.5q0 31 -21.5 51.5t-57.5 42.5l-69 42q-43 26 -71 63.5t-28 95.5q0 39 16.5 74t46 61.5t69 41.5t85.5 15q59 0 108 -26.5t84 -69.5l-69 -63q-25 28 -56.5 47t-72.5 19q-48 0 -74 -27t-26 -61q0 -32 22.5 -51.5
t60.5 -42.5l70 -42q48 -28 71.5 -63t23.5 -92q0 -44 -17 -81.5t-48.5 -65.5t-75.5 -43.5t-97 -15.5q-66 0 -123.5 28t-102.5 91z" />
    <glyph glyph-name="T" unicode="T" horiz-adv-x="521" 
d="M269 562h-181l18 92h470l-18 -92h-181l-112 -562h-108z" />
    <glyph glyph-name="U" unicode="U" horiz-adv-x="630" 
d="M159 654h108l-73 -366q-9 -42 -9 -77q0 -63 27 -96.5t89 -33.5q52 0 89.5 42t57.5 141l78 390h106l-79 -390q-29 -146 -94 -211t-162 -65q-109 0 -164.5 54t-55.5 163q0 22 3.5 48t8.5 51z" />
    <glyph glyph-name="V" unicode="V" horiz-adv-x="526" 
d="M80 654h112l22 -342l6 -106t5 -107h4l48.5 106.5l48.5 106.5l164 342h117l-339 -654h-130z" />
    <glyph glyph-name="W" unicode="W" horiz-adv-x="775" 
d="M102 654h110l-15 -336q-4 -53 -7 -105.5t-8 -106.5h4l45 107l44 105l149 336h93l6 -336q0 -106 -3 -212h4l39 107l39 105l126 336h104l-262 -654h-136l-2 356q0 34 2 74.5l4 78.5h-4l-29.5 -76.5l-31.5 -76.5l-153 -356h-134z" />
    <glyph glyph-name="X" unicode="X" horiz-adv-x="524" 
d="M211 338l-105 316h119l44 -152q6 -23 11.5 -46.5t13.5 -51.5h4l33.5 52l30.5 48l99 150h115l-234 -322l114 -332h-119l-48 163q-8 25 -14.5 50t-14.5 53h-3l-36 -54l-33 -52l-109 -160h-115z" />
    <glyph glyph-name="Y" unicode="Y" horiz-adv-x="486" 
d="M187 246l-105 408h111l37 -172q8 -38 14 -72t14 -72h4l42 73l43 72l107 171h116l-275 -408l-49 -246h-108z" />
    <glyph glyph-name="Z" unicode="Z" horiz-adv-x="519" 
d="M11 65l390 498h-278l18 91h407l-13 -65l-387 -498h306l-19 -91h-438z" />
    <glyph glyph-name="a" unicode="a" horiz-adv-x="544" 
d="M35 167q0 70 22 131.5t59 107t84.5 71.5t98.5 26q36 0 66 -18.5t47 -50.5h2l21 57h86l-98 -491h-88l5 68h-3q-35 -36 -77.5 -58t-84.5 -22q-65 0 -102.5 46t-37.5 133zM219 76q32 0 65.5 19t63.5 64l40 196q-17 32 -38.5 46t-44.5 14q-31 0 -60 -18.5t-51 -50.5
t-35 -74.5t-13 -89.5q0 -54 19.5 -80t53.5 -26z" />
    <glyph glyph-name="b" unicode="b" horiz-adv-x="545" 
d="M22 0l142 706h107l-35 -174l-24 -94h2q35 28 74 46.5t80 18.5q66 0 103 -45.5t37 -133.5q0 -71 -22 -132t-59 -106.5t-84 -71.5t-98 -26q-37 0 -65.5 18.5t-45.5 50.5h-2l-21 -57h-89zM324 415q-29 0 -63 -17.5t-62 -53.5l-42 -208q16 -32 37 -46t44 -14q31 0 60 18.5
t51 50.5t35.5 74.5t13.5 90.5q0 54 -20 79.5t-54 25.5z" />
    <glyph glyph-name="c" unicode="c" horiz-adv-x="439" 
d="M33 188q0 66 22.5 123.5t61 100t90 67t108.5 24.5q45 0 77 -18t52 -42l-60 -65q-17 20 -34 29t-42 9q-33 0 -63 -18t-52.5 -48.5t-36 -71t-13.5 -86.5q0 -56 24.5 -86.5t74.5 -30.5q29 0 51.5 11.5t41.5 26.5l46 -68q-28 -20 -66.5 -38.5t-94.5 -18.5q-41 0 -75 13.5
t-59 39t-39 62.5t-14 85z" />
    <glyph glyph-name="d" unicode="d" horiz-adv-x="540" 
d="M424 532l34 174h107l-142 -706h-88l5 68h-3q-35 -36 -77.5 -58t-84.5 -22q-65 0 -102.5 46t-37.5 133q0 70 22 131.5t59 107t84.5 71.5t98.5 26q36 0 64 -18t44 -47h3zM219 76q32 0 65 19t64 64l40 196q-17 32 -38.5 46t-44.5 14q-31 0 -60 -18.5t-51 -50.5t-35 -74.5
t-13 -89.5q0 -54 19.5 -80t53.5 -26z" />
    <glyph glyph-name="e" unicode="e" horiz-adv-x="488" 
d="M33 196q0 69 23.5 125.5t62 97t86.5 62.5t96 22q43 0 72.5 -14t48 -38.5t27 -57.5t8.5 -71q0 -32 -8 -62t-13 -42h-299q-4 -39 4 -67t24.5 -46t40.5 -26.5t52 -8.5q26 0 53 12t47 27l40 -69q-30 -21 -72.5 -36.5t-95.5 -15.5q-44 0 -80 14t-62 40.5t-40.5 65t-14.5 88.5z
M363 286q2 10 3.5 20.5t1.5 22.5q0 36 -17.5 63.5t-62.5 27.5t-84.5 -35.5t-57.5 -98.5h217z" />
    <glyph glyph-name="f" unicode="f" horiz-adv-x="305" 
d="M74 486l65 5l11 57q15 75 57 122.5t116 47.5q28 0 52 -7t45 -18l-36 -76q-9 5 -22.5 10t-28.5 5q-30 0 -49 -19.5t-27 -61.5l-12 -60h93l-17 -85h-94l-80 -406h-107l81 406h-63z" />
    <glyph glyph-name="g" unicode="g" horiz-adv-x="538" 
d="M515 491l-100 -498q-21 -104 -84 -157.5t-161 -53.5q-47 0 -92.5 18t-84.5 50l48 72q28 -23 61 -38.5t71 -15.5q56 0 90 32.5t50 91.5l24 91h-3q-35 -33 -73.5 -53t-82.5 -20q-62 0 -102.5 43.5t-40.5 129.5q0 67 21.5 125t57.5 101.5t82.5 68.5t96.5 25q36 0 65.5 -18.5
t45.5 -50.5h3l21 57h87zM217 99q29 0 63.5 17.5t63.5 56.5l37 182q-17 32 -38 46t-44 14q-30 0 -57.5 -17.5t-49 -47.5t-34 -69.5t-12.5 -83.5q0 -50 19.5 -74t51.5 -24z" />
    <glyph glyph-name="h" unicode="h" horiz-adv-x="533" 
d="M164 706h107l-43 -208l-19 -71h4q38 32 77.5 54t84.5 22q62 0 89 -32t27 -92q0 -17 -1.5 -33t-6.5 -36l-62 -310h-107l60 296q3 17 5.5 29t2.5 23q0 63 -62 63q-26 0 -55.5 -18t-68.5 -58l-66 -335h-108z" />
    <glyph glyph-name="i" unicode="i" horiz-adv-x="251" 
d="M121 491h107l-98 -491h-108zM200 578q-23 0 -42 14.5t-19 41.5q0 29 21 49.5t51 20.5q23 0 42 -14.5t19 -41.5q0 -30 -21 -50t-51 -20z" />
    <glyph glyph-name="j" unicode="j" horiz-adv-x="252" 
d="M123 -38q-8 -36 -21 -67t-32.5 -53.5t-47 -35t-64.5 -12.5q-25 0 -45 4.5t-41 15.5l34 78q19 -12 44 -12q27 0 41.5 21t24.5 63l106 527h107zM202 578q-24 0 -43 14.5t-19 41.5q0 29 21 49.5t51 20.5q24 0 43 -14.5t19 -41.5q0 -30 -21.5 -50t-50.5 -20z" />
    <glyph glyph-name="k" unicode="k" horiz-adv-x="501" 
d="M164 706h107l-89 -444h4l217 229h120l-198 -210l117 -281h-108l-84 218l-96 -97l-24 -121h-108z" />
    <glyph glyph-name="l" unicode="l" horiz-adv-x="262" 
d="M164 706h107l-118 -591q-2 -8 -2 -12v-7q0 -21 17 -21q5 0 8 0.5t10 2.5l-2 -80q-11 -5 -26 -7.5t-35 -2.5q-43 0 -63 21t-20 59q0 23 7 52z" />
    <glyph glyph-name="m" unicode="m" horiz-adv-x="813" 
d="M120 491h87l-5 -69h4q38 33 79 57t81 24q28 0 48 -7t33.5 -19t21 -28.5t11.5 -36.5q44 42 87 66.5t83 24.5q61 0 88.5 -32t27.5 -92q0 -17 -2 -33t-6 -36l-62 -310h-108l60 296q4 17 6 29t2 23q0 63 -60 63q-19 0 -49 -18t-68 -58l-67 -335h-107l59 296q4 17 6 29t2 23
q0 63 -59 63q-20 0 -50 -18t-67 -58l-66 -335h-108z" />
    <glyph glyph-name="n" unicode="n" horiz-adv-x="539" 
d="M120 491h87l-5 -69h4q39 33 80.5 57t88.5 24q62 0 89 -32t27 -92q0 -17 -1.5 -33t-6.5 -36l-62 -310h-107l60 296q3 17 5.5 29t2.5 23q0 63 -62 63q-26 0 -55.5 -18t-68.5 -58l-66 -335h-108z" />
    <glyph glyph-name="o" unicode="o" horiz-adv-x="524" 
d="M217 -12q-41 0 -75 14t-58 40t-37 63t-13 83q0 70 23.5 128.5t61.5 99.5t86.5 64t98.5 23q84 0 134 -53.5t50 -146.5q0 -70 -23.5 -128t-61.5 -99.5t-86.5 -64.5t-99.5 -23zM293 416q-29 0 -56.5 -17.5t-48.5 -47.5t-33.5 -71t-12.5 -88q0 -56 22 -86.5t65 -30.5
q29 0 56 17.5t48 48t33.5 71.5t12.5 88q0 56 -22 86t-64 30z" />
    <glyph glyph-name="p" unicode="p" horiz-adv-x="544" 
d="M118 -48l-28 -146h-107l138 685h87l-2 -60h3q35 31 76 51.5t83 20.5q66 0 103 -46t37 -133q0 -71 -22 -132t-59 -106.5t-84 -71.5t-98 -26q-35 0 -63 17.5t-46 46.5h-2zM324 415q-29 0 -63 -17.5t-62 -53.5l-42 -210q16 -31 37 -44.5t44 -13.5q31 0 60 18.5t51 50.5
t35.5 74.5t13.5 90.5q0 54 -20 79.5t-54 25.5z" />
    <glyph glyph-name="q" unicode="q" horiz-adv-x="544" 
d="M340 69h-2q-35 -36 -78 -58.5t-85 -22.5q-65 0 -102.5 46t-37.5 133q0 70 22 131.5t59 107t84.5 71.5t98.5 26q36 0 66 -18.5t47 -50.5h2l21 57h86l-137 -685h-108l30 146zM219 76q29 0 63.5 19t65.5 64l40 196q-17 32 -38.5 46t-44.5 14q-31 0 -60 -18.5t-51 -50.5
t-35 -74.5t-13 -89.5q0 -54 19.5 -80t53.5 -26z" />
    <glyph glyph-name="r" unicode="r" horiz-adv-x="363" 
d="M120 491h87l-9 -95h4q29 46 68 76.5t84 30.5q29 0 49 -9l-36 -94q-9 5 -21 6.5t-25 1.5q-35 0 -69 -27t-64 -84l-58 -297h-108z" />
    <glyph glyph-name="s" unicode="s" horiz-adv-x="413" 
d="M58 134q24 -32 53.5 -49t62.5 -17q35 0 60.5 18.5t25.5 45.5q0 23 -21 39.5t-67 42.5q-49 27 -77 59t-28 77q0 33 14 61.5t38.5 48.5t57 31.5t69.5 11.5q48 0 86.5 -20t67.5 -50l-60 -57q-19 19 -42 32.5t-52 13.5q-34 0 -56 -18t-22 -44q0 -14 7 -24t19 -19t27 -17
l31 -17q55 -29 82 -61t27 -77q0 -36 -14.5 -65t-40.5 -49.5t-62 -31.5t-78 -11q-23 0 -47.5 7t-47.5 19t-43 29.5t-34 38.5z" />
    <glyph glyph-name="t" unicode="t" horiz-adv-x="346" 
d="M122 406h-69l16 80l75 5l39 132h90l-26 -132h118l-17 -85h-120l-50 -244q-3 -18 -3 -35q0 -27 13 -40.5t44 -13.5q13 0 24 4t22 9l20 -76q-18 -8 -44 -15t-60 -7q-69 0 -98.5 34.5t-29.5 85.5q0 15 2 29l4 29z" />
    <glyph glyph-name="u" unicode="u" horiz-adv-x="537" 
d="M415 0h-87l4 70h-4q-37 -33 -78 -57.5t-86 -24.5q-62 0 -89.5 32.5t-27.5 91.5q0 17 2 33.5t6 35.5l62 310h107l-59 -296q-4 -17 -6 -29t-2 -23q0 -63 61 -63q49 0 121 76l66 335h107z" />
    <glyph glyph-name="v" unicode="v" horiz-adv-x="474" 
d="M59 491h107l26 -261q4 -37 6 -74l4 -75h4l34.5 74.5l34.5 74.5l127 261h106l-256 -491h-126z" />
    <glyph glyph-name="w" unicode="w" horiz-adv-x="728" 
d="M71 491h106l8 -263q1 -35 0 -70t-1 -71h4l27.5 71t29.5 70l114 263h98l13 -263q1 -35 1 -70t1 -71h4l26.5 71t27.5 70l109 263h100l-216 -491h-128l-9 236q0 35 -0.5 71t-0.5 74h-4l-27.5 -74l-27.5 -71l-101 -236h-125z" />
    <glyph glyph-name="x" unicode="x" horiz-adv-x="460" 
d="M172 262l-89 229h109l36 -96l13 -42t13 -41h4l28.5 41l28.5 42l68 96h115l-197 -253l95 -238h-110l-37 100l-16 44.5l-16 43.5h-4l-29.5 -42.5l-32.5 -44.5l-77 -101h-116z" />
    <glyph glyph-name="y" unicode="y" horiz-adv-x="474" 
d="M-14 -106q17 -10 36 -10q32 0 61 24.5t49 66.5l15 30l-85 486h107l31 -248q4 -33 7 -72.5t5 -74.5h4l34.5 73.5l34.5 73.5l122 248h104l-276 -517q-23 -40 -46.5 -72.5t-49.5 -55.5t-56.5 -35.5t-67.5 -12.5q-12 0 -30.5 5t-32.5 13l34 78v0z" />
    <glyph glyph-name="z" unicode="z" horiz-adv-x="427" 
d="M2 61l292 345h-200l17 85h335l-12 -62l-293 -344h231l-17 -85h-365z" />
    <glyph glyph-name="Agrave" unicode="&#xc0;" horiz-adv-x="529" 
d="M359 266l-7 99q-3 51 -6.5 100t-5.5 103h-4l-46.5 -103t-48.5 -100l-49 -99h167zM365 184h-213l-91 -184h-119l350 654h128l70 -654h-112zM235 818h110l63 -114h-83z" />
    <glyph glyph-name="Aacute" unicode="&#xc1;" horiz-adv-x="529" 
d="M359 266l-7 99q-3 51 -6.5 100t-5.5 103h-4l-46.5 -103t-48.5 -100l-49 -99h167zM365 184h-213l-91 -184h-119l350 654h128l70 -654h-112zM393 818h119l-133 -114h-90z" />
    <glyph glyph-name="Acircumflex" unicode="&#xc2;" horiz-adv-x="529" 
d="M359 266l-7 99q-3 51 -6.5 100t-5.5 103h-4l-46.5 -103t-48.5 -100l-49 -99h167zM365 184h-213l-91 -184h-119l350 654h128l70 -654h-112zM321 818h104l69 -114h-80l-46 66h-3l-70 -66h-88z" />
    <glyph glyph-name="Atilde" unicode="&#xc3;" horiz-adv-x="529" 
d="M359 266l-7 99q-3 51 -6.5 100t-5.5 103h-4l-46.5 -103t-48.5 -100l-49 -99h167zM365 184h-213l-91 -184h-119l350 654h128l70 -654h-112zM201 707q14 54 44.5 86t65.5 32q20 0 34 -8t25.5 -17.5t23 -17.5t26.5 -8q27 0 45 49h58q-14 -54 -44 -86t-65 -32q-21 0 -35 8
t-25.5 17.5t-22.5 17.5t-26 8q-28 0 -46 -49h-58z" />
    <glyph glyph-name="Adieresis" unicode="&#xc4;" horiz-adv-x="529" 
d="M359 266l-7 99q-3 51 -6.5 100t-5.5 103h-4l-46.5 -103t-48.5 -100l-49 -99h167zM365 184h-213l-91 -184h-119l350 654h128l70 -654h-112zM268 708q-21 0 -35 13t-14 36q0 25 18 45t44 20q20 0 34.5 -13t14.5 -36q0 -24 -18 -44.5t-44 -20.5zM446 708q-21 0 -35 13
t-14 36q0 25 18 45t44 20q20 0 34.5 -13t14.5 -36q0 -24 -18 -44.5t-44 -20.5z" />
    <glyph glyph-name="Amacron" unicode="&#x100;" horiz-adv-x="529" 
d="M359 266l-7 99q-3 51 -6.5 100t-5.5 103h-4l-46.5 -103t-48.5 -100l-49 -99h167zM365 184h-213l-91 -184h-119l350 654h128l70 -654h-112zM243 796h252l-14 -72h-252z" />
    <glyph glyph-name="Abreve" unicode="&#x102;" horiz-adv-x="529" 
d="M359 266l-7 99q-3 51 -6.5 100t-5.5 103h-4l-46.5 -103t-48.5 -100l-49 -99h167zM365 184h-213l-91 -184h-119l350 654h128l70 -654h-112zM351 704q-28 0 -48 9t-32.5 24.5t-17.5 36.5t-3 44h59q-2 -24 11 -40.5t41 -16.5q29 0 47 17t27 40h61q-8 -24 -20 -44.5
t-29.5 -36t-41 -24.5t-54.5 -9z" />
    <glyph glyph-name="Aring" unicode="&#xc5;" horiz-adv-x="529" 
d="M359 266l-7 99q-3 51 -6.5 100t-5.5 103h-4l-46.5 -103t-48.5 -100l-49 -99h167zM365 184h-213l-91 -184h-119l350 654h128l70 -654h-112zM361 697q-38 0 -65.5 19.5t-27.5 62.5q0 21 8.5 40.5t23 33.5t33.5 22.5t41 8.5q38 0 65.5 -20.5t27.5 -62.5q0 -22 -8.5 -41
t-23 -33t-33.5 -22t-41 -8zM372 839q-20 0 -34.5 -16.5t-14.5 -38.5q0 -19 10 -30.5t30 -11.5t34.5 16t14.5 39q0 18 -10.5 30t-29.5 12z" />
    <glyph glyph-name="uni01CD" unicode="&#x1cd;" horiz-adv-x="529" 
d="M359 266l-7 99q-3 51 -6.5 100t-5.5 103h-4l-46.5 -103t-48.5 -100l-49 -99h167zM365 184h-213l-91 -184h-119l350 654h128l70 -654h-112zM403 704h-103l-70 114h80l46 -66h3l71 66h87z" />
    <glyph glyph-name="uni1EA0" unicode="&#x1ea0;" horiz-adv-x="529" 
d="M359 266l-7 99q-3 51 -6.5 100t-5.5 103h-4l-46.5 -103t-48.5 -100l-49 -99h167zM365 184h-213l-91 -184h-119l350 654h128l70 -654h-112zM195 -214q-23 0 -42 14.5t-19 41.5q0 29 21 49.5t51 20.5q23 0 42 -14.5t19 -41.5q0 -30 -21 -50t-51 -20z" />
    <glyph glyph-name="uni1EA2" unicode="&#x1ea2;" horiz-adv-x="529" 
d="M359 266l-7 99q-3 51 -6.5 100t-5.5 103h-4l-46.5 -103t-48.5 -100l-49 -99h167zM365 184h-213l-91 -184h-119l350 654h128l70 -654h-112zM321 876q71 -3 100.5 -23.5t29.5 -49.5q0 -25 -10.5 -43.5t-29.5 -31.5t-44 -21.5t-53 -12.5l-5 45q28 7 44 16.5t16 28.5
q0 15 -14.5 24t-55.5 11z" />
    <glyph glyph-name="uni1EA4" unicode="&#x1ea4;" horiz-adv-x="529" 
d="M359 266l-7 99q-3 51 -6.5 100t-5.5 103h-4l-46.5 -103t-48.5 -100l-49 -99h167zM365 184h-213l-91 -184h-119l350 654h128l70 -654h-112zM554 883h84l-104 -115h-63zM330 812h92l69 -108h-78l-44 59h-4l-67 -59h-79z" />
    <glyph glyph-name="uni1EA6" unicode="&#x1ea6;" horiz-adv-x="529" 
d="M359 266l-7 99q-3 51 -6.5 100t-5.5 103h-4l-46.5 -103t-48.5 -100l-49 -99h167zM365 184h-213l-91 -184h-119l350 654h128l70 -654h-112zM570 768h-63l-62 115h84zM330 812h92l69 -108h-78l-44 59h-4l-67 -59h-79z" />
    <glyph glyph-name="uni1EA8" unicode="&#x1ea8;" horiz-adv-x="529" 
d="M359 266l-7 99q-3 51 -6.5 100t-5.5 103h-4l-46.5 -103t-48.5 -100l-49 -99h167zM365 184h-213l-91 -184h-119l350 654h128l70 -654h-112zM330 812h92l69 -108h-78l-44 59h-4l-67 -59h-79zM489 909q63 -2 88 -19.5t25 -43.5q0 -45 -32 -66t-83 -29l-5 38q24 6 36.5 16
t12.5 27q0 13 -13 20.5t-48 9.5z" />
    <glyph glyph-name="uni1EAA" unicode="&#x1eaa;" horiz-adv-x="529" 
d="M359 266l-7 99q-3 51 -6.5 100t-5.5 103h-4l-46.5 -103t-48.5 -100l-49 -99h167zM365 184h-213l-91 -184h-119l350 654h128l70 -654h-112zM330 812h92l69 -108h-78l-44 59h-4l-67 -59h-79zM246 847q14 49 41 76t59 27q16 0 29 -7t24.5 -16t21.5 -16t22 -7q26 0 45 45h50
q-14 -49 -41.5 -76t-58.5 -27q-17 0 -29.5 7t-23.5 15.5t-21 15.5t-22 7q-29 0 -45 -44h-51z" />
    <glyph glyph-name="uni1EAC" unicode="&#x1eac;" horiz-adv-x="529" 
d="M359 266l-7 99q-3 51 -6.5 100t-5.5 103h-4l-46.5 -103t-48.5 -100l-49 -99h167zM365 184h-213l-91 -184h-119l350 654h128l70 -654h-112zM321 818h104l69 -114h-80l-46 66h-3l-70 -66h-88zM195 -214q-23 0 -42 14.5t-19 41.5q0 29 21 49.5t51 20.5q23 0 42 -14.5
t19 -41.5q0 -30 -21 -50t-51 -20z" />
    <glyph glyph-name="uni1EAE" unicode="&#x1eae;" horiz-adv-x="529" 
d="M359 266l-7 99q-3 51 -6.5 100t-5.5 103h-4l-46.5 -103t-48.5 -100l-49 -99h167zM365 184h-213l-91 -184h-119l350 654h128l70 -654h-112zM419 913h84l-117 -110h-57zM352 704q-56 0 -81 32.5t-20 79.5h54q-2 -29 13.5 -44.5t43.5 -15.5q29 0 50.5 16.5t29.5 43.5h55
q-14 -47 -49 -79.5t-96 -32.5z" />
    <glyph glyph-name="uni1EB0" unicode="&#x1eb0;" horiz-adv-x="529" 
d="M359 266l-7 99q-3 51 -6.5 100t-5.5 103h-4l-46.5 -103t-48.5 -100l-49 -99h167zM365 184h-213l-91 -184h-119l350 654h128l70 -654h-112zM413 803h-57l-57 110h82zM352 704q-56 0 -81 32.5t-20 79.5h54q-2 -29 13.5 -44.5t43.5 -15.5q29 0 50.5 16.5t29.5 43.5h55
q-14 -47 -49 -79.5t-96 -32.5z" />
    <glyph glyph-name="uni1EB2" unicode="&#x1eb2;" horiz-adv-x="529" 
d="M359 266l-7 99q-3 51 -6.5 100t-5.5 103h-4l-46.5 -103t-48.5 -100l-49 -99h167zM365 184h-213l-91 -184h-119l350 654h128l70 -654h-112zM352 704q-56 0 -81 32.5t-20 79.5h54q-2 -29 13.5 -44.5t43.5 -15.5q29 0 50.5 16.5t29.5 43.5h55q-14 -47 -49 -79.5t-96 -32.5z
M343 958q64 -2 89 -19t25 -43q0 -45 -32 -66.5t-84 -29.5l-4 38q24 6 36 16t12 27q0 13 -13 20.5t-47 9.5z" />
    <glyph glyph-name="uni1EB4" unicode="&#x1eb4;" horiz-adv-x="529" 
d="M359 266l-7 99q-3 51 -6.5 100t-5.5 103h-4l-46.5 -103t-48.5 -100l-49 -99h167zM365 184h-213l-91 -184h-119l350 654h128l70 -654h-112zM352 704q-56 0 -81 32.5t-20 79.5h54q-2 -29 13.5 -44.5t43.5 -15.5q29 0 50.5 16.5t29.5 43.5h55q-14 -47 -49 -79.5t-96 -32.5z
M246 847q14 49 41 76t59 27q16 0 29 -7t24.5 -16t21.5 -16t22 -7q26 0 45 45h50q-14 -49 -41.5 -76t-58.5 -27q-17 0 -29.5 7t-23.5 15.5t-21 15.5t-22 7q-29 0 -45 -44h-51z" />
    <glyph glyph-name="uni1EB6" unicode="&#x1eb6;" horiz-adv-x="529" 
d="M359 266l-7 99q-3 51 -6.5 100t-5.5 103h-4l-46.5 -103t-48.5 -100l-49 -99h167zM365 184h-213l-91 -184h-119l350 654h128l70 -654h-112zM351 704q-28 0 -48 9t-32.5 24.5t-17.5 36.5t-3 44h59q-2 -24 11 -40.5t41 -16.5q29 0 47 17t27 40h61q-8 -24 -20 -44.5
t-29.5 -36t-41 -24.5t-54.5 -9zM195 -214q-23 0 -42 14.5t-19 41.5q0 29 21 49.5t51 20.5q23 0 42 -14.5t19 -41.5q0 -30 -21 -50t-51 -20z" />
    <glyph glyph-name="Aogonek" unicode="&#x104;" horiz-adv-x="529" 
d="M359 266l-7 99q-3 51 -6.5 100t-5.5 103h-4l-46.5 -103t-48.5 -100l-49 -99h167zM490 0q-54 -25 -77.5 -54.5t-23.5 -55.5q0 -17 10.5 -26t24.5 -9q15 0 32 10l22 -55q-20 -12 -44.5 -19t-45.5 -7q-38 0 -62 18.5t-24 53.5q0 23 9.5 44.5t23.5 40t31 33.5t32 26h-20
l-13 184h-213l-91 -184h-119l350 654h128z" />
    <glyph glyph-name="AE" unicode="&#xc6;" horiz-adv-x="821" 
d="M462 574h-3l-66.5 -101l-65.5 -100l-73 -114h145zM567 563l-35 -176h217l-18 -91h-216l-42 -205h266l-18 -91h-373l35 174h-184l-111 -174h-122l440 654h436l-18 -91h-257z" />
    <glyph glyph-name="Ccedilla" unicode="&#xc7;" horiz-adv-x="559" 
d="M57 257q0 81 25.5 155t71 130.5t108.5 90t138 33.5q57 0 99 -27.5t68 -72.5l-74 -57q-19 30 -43 47t-56 17q-50 0 -91.5 -27t-71.5 -70.5t-47 -98.5t-17 -112q0 -41 8.5 -75t27 -58t47 -37.5t68.5 -13.5q35 0 65.5 15t59.5 39l47 -69q-33 -29 -81.5 -53.5t-111.5 -24.5
q-56 0 -100.5 19t-75.5 54t-47.5 84.5t-16.5 111.5zM255 3h66l-34 -52q19 -7 32 -21t13 -37q0 -27 -14 -46.5t-37.5 -32.5t-54.5 -20.5t-64 -9.5l-4 45q39 5 65.5 18t26.5 37q0 14 -10.5 23.5t-38.5 17.5z" />
    <glyph glyph-name="Cacute" unicode="&#x106;" horiz-adv-x="559" 
d="M57 257q0 81 25.5 155t71 130.5t108.5 90t138 33.5q57 0 99 -27.5t68 -72.5l-74 -57q-19 30 -43 47t-56 17q-50 0 -91.5 -27t-71.5 -70.5t-47 -98.5t-17 -112q0 -41 8.5 -75t27 -58t47 -37.5t68.5 -13.5q35 0 65.5 15t59.5 39l47 -69q-33 -29 -81.5 -53.5t-111.5 -24.5
q-56 0 -100.5 19t-75.5 54t-47.5 84.5t-16.5 111.5zM460 818h119l-133 -114h-90z" />
    <glyph glyph-name="Ccircumflex" unicode="&#x108;" horiz-adv-x="559" 
d="M57 257q0 81 25.5 155t71 130.5t108.5 90t138 33.5q57 0 99 -27.5t68 -72.5l-74 -57q-19 30 -43 47t-56 17q-50 0 -91.5 -27t-71.5 -70.5t-47 -98.5t-17 -112q0 -41 8.5 -75t27 -58t47 -37.5t68.5 -13.5q35 0 65.5 15t59.5 39l47 -69q-33 -29 -81.5 -53.5t-111.5 -24.5
q-56 0 -100.5 19t-75.5 54t-47.5 84.5t-16.5 111.5zM388 818h104l69 -114h-80l-46 66h-3l-70 -66h-88z" />
    <glyph glyph-name="Ccaron" unicode="&#x10c;" horiz-adv-x="559" 
d="M57 257q0 81 25.5 155t71 130.5t108.5 90t138 33.5q57 0 99 -27.5t68 -72.5l-74 -57q-19 30 -43 47t-56 17q-50 0 -91.5 -27t-71.5 -70.5t-47 -98.5t-17 -112q0 -41 8.5 -75t27 -58t47 -37.5t68.5 -13.5q35 0 65.5 15t59.5 39l47 -69q-33 -29 -81.5 -53.5t-111.5 -24.5
q-56 0 -100.5 19t-75.5 54t-47.5 84.5t-16.5 111.5zM470 704h-103l-70 114h80l46 -66h3l71 66h87z" />
    <glyph glyph-name="Cdotaccent" unicode="&#x10a;" horiz-adv-x="559" 
d="M57 257q0 81 25.5 155t71 130.5t108.5 90t138 33.5q57 0 99 -27.5t68 -72.5l-74 -57q-19 30 -43 47t-56 17q-50 0 -91.5 -27t-71.5 -70.5t-47 -98.5t-17 -112q0 -41 8.5 -75t27 -58t47 -37.5t68.5 -13.5q35 0 65.5 15t59.5 39l47 -69q-33 -29 -81.5 -53.5t-111.5 -24.5
q-56 0 -100.5 19t-75.5 54t-47.5 84.5t-16.5 111.5zM426 709q-24 0 -43 14t-19 42q0 29 21.5 49.5t50.5 20.5q24 0 43 -15t19 -42q0 -30 -21 -49.5t-51 -19.5z" />
    <glyph glyph-name="Dcaron" unicode="&#x10e;" horiz-adv-x="604" 
d="M162 654h133q137 0 210 -65.5t73 -190.5q0 -93 -25.5 -167t-72 -125t-112 -78.5t-146.5 -27.5h-190zM220 87q55 0 100.5 20.5t78.5 59.5t51 95.5t18 128.5q0 88 -46 132t-130 44h-40l-95 -480h63zM432 704h-103l-70 114h80l46 -66h3l71 66h87z" />
    <glyph glyph-name="uni1E0C" unicode="&#x1e0c;" horiz-adv-x="604" 
d="M162 654h133q137 0 210 -65.5t73 -190.5q0 -93 -25.5 -167t-72 -125t-112 -78.5t-146.5 -27.5h-190zM220 87q55 0 100.5 20.5t78.5 59.5t51 95.5t18 128.5q0 88 -46 132t-130 44h-40l-95 -480h63zM240 -214q-23 0 -42 14.5t-19 41.5q0 29 21 49.5t51 20.5q23 0 42 -14.5
t19 -41.5q0 -30 -21 -50t-51 -20z" />
    <glyph glyph-name="uni1E0E" unicode="&#x1e0e;" horiz-adv-x="604" 
d="M162 654h133q137 0 210 -65.5t73 -190.5q0 -93 -25.5 -167t-72 -125t-112 -78.5t-146.5 -27.5h-190zM220 87q55 0 100.5 20.5t78.5 59.5t51 95.5t18 128.5q0 88 -46 132t-130 44h-40l-95 -480h63zM130 -100h249l-13 -71h-250z" />
    <glyph glyph-name="Dcroat" unicode="&#x110;" horiz-adv-x="622" 
d="M238 87q55 0 100.5 20.5t78.5 59.5t51 95.5t18 128.5q0 88 -46 132t-130 44h-40l-39 -196h137l-12 -56h-136l-45 -228h63zM313 654q137 0 210 -65.5t73 -190.5q0 -93 -25.5 -167t-72 -125t-112 -78.5t-146.5 -27.5h-190l63 315h-71l11 52l71 4l56 283h133z" />
    <glyph glyph-name="Egrave" unicode="&#xc8;" horiz-adv-x="515" 
d="M162 654h375l-18 -91h-268l-35 -176h227l-18 -91h-226l-42 -205h276l-18 -91h-383zM242 818h110l63 -114h-83z" />
    <glyph glyph-name="Eacute" unicode="&#xc9;" horiz-adv-x="515" 
d="M162 654h375l-18 -91h-268l-35 -176h227l-18 -91h-226l-42 -205h276l-18 -91h-383zM400 818h119l-133 -114h-90z" />
    <glyph glyph-name="Ecircumflex" unicode="&#xca;" horiz-adv-x="515" 
d="M162 654h375l-18 -91h-268l-35 -176h227l-18 -91h-226l-42 -205h276l-18 -91h-383zM328 818h104l69 -114h-80l-46 66h-3l-70 -66h-88z" />
    <glyph glyph-name="Ecaron" unicode="&#x11a;" horiz-adv-x="515" 
d="M162 654h375l-18 -91h-268l-35 -176h227l-18 -91h-226l-42 -205h276l-18 -91h-383zM410 704h-103l-70 114h80l46 -66h3l71 66h87z" />
    <glyph glyph-name="Edieresis" unicode="&#xcb;" horiz-adv-x="515" 
d="M162 654h375l-18 -91h-268l-35 -176h227l-18 -91h-226l-42 -205h276l-18 -91h-383zM275 708q-21 0 -35 13t-14 36q0 25 18 45t44 20q20 0 34.5 -13t14.5 -36q0 -24 -18 -44.5t-44 -20.5zM453 708q-21 0 -35 13t-14 36q0 25 18 45t44 20q20 0 34.5 -13t14.5 -36
q0 -24 -18 -44.5t-44 -20.5z" />
    <glyph glyph-name="Emacron" unicode="&#x112;" horiz-adv-x="515" 
d="M162 654h375l-18 -91h-268l-35 -176h227l-18 -91h-226l-42 -205h276l-18 -91h-383zM250 796h252l-14 -72h-252z" />
    <glyph glyph-name="Ebreve" unicode="&#x114;" horiz-adv-x="515" 
d="M162 654h375l-18 -91h-268l-35 -176h227l-18 -91h-226l-42 -205h276l-18 -91h-383zM358 704q-28 0 -48 9t-32.5 24.5t-17.5 36.5t-3 44h59q-2 -24 11 -40.5t41 -16.5q29 0 47 17t27 40h61q-8 -24 -20 -44.5t-29.5 -36t-41 -24.5t-54.5 -9z" />
    <glyph glyph-name="Edotaccent" unicode="&#x116;" horiz-adv-x="515" 
d="M162 654h375l-18 -91h-268l-35 -176h227l-18 -91h-226l-42 -205h276l-18 -91h-383zM366 709q-24 0 -43 14t-19 42q0 29 21.5 49.5t50.5 20.5q24 0 43 -15t19 -42q0 -30 -21 -49.5t-51 -19.5z" />
    <glyph glyph-name="uni1EB8" unicode="&#x1eb8;" horiz-adv-x="515" 
d="M162 654h375l-18 -91h-268l-35 -176h227l-18 -91h-226l-42 -205h276l-18 -91h-383zM209 -214q-23 0 -42 14.5t-19 41.5q0 29 21 49.5t51 20.5q23 0 42 -14.5t19 -41.5q0 -30 -21 -50t-51 -20z" />
    <glyph glyph-name="uni1EBA" unicode="&#x1eba;" horiz-adv-x="515" 
d="M162 654h375l-18 -91h-268l-35 -176h227l-18 -91h-226l-42 -205h276l-18 -91h-383zM328 876q71 -3 100.5 -23.5t29.5 -49.5q0 -25 -10.5 -43.5t-29.5 -31.5t-44 -21.5t-53 -12.5l-5 45q28 7 44 16.5t16 28.5q0 15 -14.5 24t-55.5 11z" />
    <glyph glyph-name="uni1EBC" unicode="&#x1ebc;" horiz-adv-x="515" 
d="M162 654h375l-18 -91h-268l-35 -176h227l-18 -91h-226l-42 -205h276l-18 -91h-383zM208 707q14 54 44.5 86t65.5 32q20 0 34 -8t25.5 -17.5t23 -17.5t26.5 -8q27 0 45 49h58q-14 -54 -44 -86t-65 -32q-21 0 -35 8t-25.5 17.5t-22.5 17.5t-26 8q-28 0 -46 -49h-58z" />
    <glyph glyph-name="uni1EBE" unicode="&#x1ebe;" horiz-adv-x="515" 
d="M162 654h375l-18 -91h-268l-35 -176h227l-18 -91h-226l-42 -205h276l-18 -91h-383zM561 883h84l-104 -115h-63zM337 812h92l69 -108h-78l-44 59h-4l-67 -59h-79z" />
    <glyph glyph-name="uni1EC0" unicode="&#x1ec0;" horiz-adv-x="515" 
d="M162 654h375l-18 -91h-268l-35 -176h227l-18 -91h-226l-42 -205h276l-18 -91h-383zM577 768h-63l-62 115h84zM337 812h92l69 -108h-78l-44 59h-4l-67 -59h-79z" />
    <glyph glyph-name="uni1EC2" unicode="&#x1ec2;" horiz-adv-x="515" 
d="M162 654h375l-18 -91h-268l-35 -176h227l-18 -91h-226l-42 -205h276l-18 -91h-383zM337 812h92l69 -108h-78l-44 59h-4l-67 -59h-79zM496 909q63 -2 88 -19.5t25 -43.5q0 -45 -32 -66t-83 -29l-5 38q24 6 36.5 16t12.5 27q0 13 -13 20.5t-48 9.5z" />
    <glyph glyph-name="uni1EC4" unicode="&#x1ec4;" horiz-adv-x="515" 
d="M162 654h375l-18 -91h-268l-35 -176h227l-18 -91h-226l-42 -205h276l-18 -91h-383zM337 812h92l69 -108h-78l-44 59h-4l-67 -59h-79zM253 847q14 49 41 76t59 27q16 0 29 -7t24.5 -16t21.5 -16t22 -7q26 0 45 45h50q-14 -49 -41.5 -76t-58.5 -27q-17 0 -29.5 7
t-23.5 15.5t-21 15.5t-22 7q-29 0 -45 -44h-51z" />
    <glyph glyph-name="uni1EC6" unicode="&#x1ec6;" horiz-adv-x="515" 
d="M162 654h375l-18 -91h-268l-35 -176h227l-18 -91h-226l-42 -205h276l-18 -91h-383zM328 818h104l69 -114h-80l-46 66h-3l-70 -66h-88zM209 -214q-23 0 -42 14.5t-19 41.5q0 29 21 49.5t51 20.5q23 0 42 -14.5t19 -41.5q0 -30 -21 -50t-51 -20z" />
    <glyph glyph-name="Eogonek" unicode="&#x118;" horiz-adv-x="515" 
d="M162 654h375l-18 -91h-268l-35 -176h227l-18 -91h-226l-42 -205h276l-18 -91q-23 -3 -42.5 -15.5t-33.5 -29t-22 -34t-8 -31.5q0 -17 10.5 -26t24.5 -9q15 0 32 10l22 -55q-20 -12 -44.5 -19t-45.5 -7q-38 0 -62 18.5t-24 53.5q0 24 10 46t24.5 41t31 33.5t29.5 23.5
h-285z" />
    <glyph glyph-name="Gcircumflex" unicode="&#x11c;" horiz-adv-x="600" 
d="M57 257q0 81 25.5 155.5t72 130.5t111.5 89.5t144 33.5q61 0 104 -27.5t69 -72.5l-74 -57q-19 30 -44 47t-61 17q-53 0 -97 -27t-75 -70.5t-48 -98.5t-17 -112q0 -41 8.5 -74.5t27.5 -58.5t49 -38.5t73 -13.5q28 0 51 8.5t40 22.5l32 154h-121l17 88h217l-59 -298
q-36 -29 -85.5 -48t-109.5 -19q-120 0 -185 72t-65 197zM385 818h104l69 -114h-80l-46 66h-3l-70 -66h-88z" />
    <glyph glyph-name="Gbreve" unicode="&#x11e;" horiz-adv-x="600" 
d="M57 257q0 81 25.5 155.5t72 130.5t111.5 89.5t144 33.5q61 0 104 -27.5t69 -72.5l-74 -57q-19 30 -44 47t-61 17q-53 0 -97 -27t-75 -70.5t-48 -98.5t-17 -112q0 -41 8.5 -74.5t27.5 -58.5t49 -38.5t73 -13.5q28 0 51 8.5t40 22.5l32 154h-121l17 88h217l-59 -298
q-36 -29 -85.5 -48t-109.5 -19q-120 0 -185 72t-65 197zM415 704q-28 0 -48 9t-32.5 24.5t-17.5 36.5t-3 44h59q-2 -24 11 -40.5t41 -16.5q29 0 47 17t27 40h61q-8 -24 -20 -44.5t-29.5 -36t-41 -24.5t-54.5 -9z" />
    <glyph glyph-name="Gdotaccent" unicode="&#x120;" horiz-adv-x="600" 
d="M57 257q0 81 25.5 155.5t72 130.5t111.5 89.5t144 33.5q61 0 104 -27.5t69 -72.5l-74 -57q-19 30 -44 47t-61 17q-53 0 -97 -27t-75 -70.5t-48 -98.5t-17 -112q0 -41 8.5 -74.5t27.5 -58.5t49 -38.5t73 -13.5q28 0 51 8.5t40 22.5l32 154h-121l17 88h217l-59 -298
q-36 -29 -85.5 -48t-109.5 -19q-120 0 -185 72t-65 197zM423 709q-24 0 -43 14t-19 42q0 29 21.5 49.5t50.5 20.5q24 0 43 -15t19 -42q0 -30 -21 -49.5t-51 -19.5z" />
    <glyph glyph-name="uni0122" unicode="&#x122;" horiz-adv-x="600" 
d="M57 257q0 81 25.5 155.5t72 130.5t111.5 89.5t144 33.5q61 0 104 -27.5t69 -72.5l-74 -57q-19 30 -44 47t-61 17q-53 0 -97 -27t-75 -70.5t-48 -98.5t-17 -112q0 -41 8.5 -74.5t27.5 -58.5t49 -38.5t73 -13.5q28 0 51 8.5t40 22.5l32 154h-121l17 88h217l-59 -298
q-36 -29 -85.5 -48t-109.5 -19q-120 0 -185 72t-65 197zM273 -42q40 -8 63 -24t23 -46q0 -28 -13.5 -46.5t-36.5 -30t-53 -17.5t-63 -8l-4 45q45 5 68.5 16.5t23.5 34.5q0 14 -10.5 22t-26.5 13z" />
    <glyph glyph-name="Gcaron" unicode="&#x1e6;" horiz-adv-x="600" 
d="M57 257q0 81 25.5 155.5t72 130.5t111.5 89.5t144 33.5q61 0 104 -27.5t69 -72.5l-74 -57q-19 30 -44 47t-61 17q-53 0 -97 -27t-75 -70.5t-48 -98.5t-17 -112q0 -41 8.5 -74.5t27.5 -58.5t49 -38.5t73 -13.5q28 0 51 8.5t40 22.5l32 154h-121l17 88h217l-59 -298
q-36 -29 -85.5 -48t-109.5 -19q-120 0 -185 72t-65 197zM467 704h-103l-70 114h80l46 -66h3l71 66h87z" />
    <glyph glyph-name="uni1E20" unicode="&#x1e20;" horiz-adv-x="600" 
d="M57 257q0 81 25.5 155.5t72 130.5t111.5 89.5t144 33.5q61 0 104 -27.5t69 -72.5l-74 -57q-19 30 -44 47t-61 17q-53 0 -97 -27t-75 -70.5t-48 -98.5t-17 -112q0 -41 8.5 -74.5t27.5 -58.5t49 -38.5t73 -13.5q28 0 51 8.5t40 22.5l32 154h-121l17 88h217l-59 -298
q-36 -29 -85.5 -48t-109.5 -19q-120 0 -185 72t-65 197zM307 796h252l-14 -72h-252z" />
    <glyph glyph-name="uni00470303" horiz-adv-x="600" 
d="M57 257q0 81 25.5 155.5t72 130.5t111.5 89.5t144 33.5q61 0 104 -27.5t69 -72.5l-74 -57q-19 30 -44 47t-61 17q-53 0 -97 -27t-75 -70.5t-48 -98.5t-17 -112q0 -41 8.5 -74.5t27.5 -58.5t49 -38.5t73 -13.5q28 0 51 8.5t40 22.5l32 154h-121l17 88h217l-59 -298
q-36 -29 -85.5 -48t-109.5 -19q-120 0 -185 72t-65 197zM265 707q14 54 44.5 86t65.5 32q20 0 34 -8t25.5 -17.5t23 -17.5t26.5 -8q27 0 45 49h58q-14 -54 -44 -86t-65 -32q-21 0 -35 8t-25.5 17.5t-22.5 17.5t-26 8q-28 0 -46 -49h-58z" />
    <glyph glyph-name="Hcircumflex" unicode="&#x124;" horiz-adv-x="638" 
d="M162 654h108l-54 -265h259l53 265h108l-131 -654h-108l60 295h-259l-58 -295h-108zM363 818h104l69 -114h-80l-46 66h-3l-70 -66h-88z" />
    <glyph glyph-name="uni1E24" unicode="&#x1e24;" horiz-adv-x="638" 
d="M162 654h108l-54 -265h259l53 265h108l-131 -654h-108l60 295h-259l-58 -295h-108zM247 -214q-23 0 -42 14.5t-19 41.5q0 29 21 49.5t51 20.5q23 0 42 -14.5t19 -41.5q0 -30 -21 -50t-51 -20z" />
    <glyph glyph-name="uni1E2A" unicode="&#x1e2a;" horiz-adv-x="638" 
d="M162 654h108l-54 -265h259l53 265h108l-131 -654h-108l60 295h-259l-58 -295h-108zM240 -207q-31 0 -52 11t-33 29.5t-15.5 42t1.5 48.5h59q-3 -31 8.5 -51t41.5 -20q31 0 51 20.5t30 50.5h62q-7 -25 -19.5 -48.5t-31.5 -42t-44.5 -29.5t-57.5 -11z" />
    <glyph glyph-name="Hbar" unicode="&#x126;" horiz-adv-x="650" 
d="M501 491h-258l-21 -102h259zM698 491h-89l-98 -491h-108l59 295h-258l-59 -295h-108l98 491h-62l11 52l62 3l22 108h108l-22 -107h259l21 107h108l-21 -107h88z" />
    <glyph glyph-name="Igrave" unicode="&#xcc;" horiz-adv-x="273" 
d="M162 654h108l-130 -654h-108zM99 818h110l63 -114h-83z" />
    <glyph glyph-name="Iacute" unicode="&#xcd;" horiz-adv-x="273" 
d="M162 654h108l-130 -654h-108zM257 818h119l-133 -114h-90z" />
    <glyph glyph-name="Icircumflex" unicode="&#xce;" horiz-adv-x="273" 
d="M162 654h108l-130 -654h-108zM185 818h104l69 -114h-80l-46 66h-3l-70 -66h-88z" />
    <glyph glyph-name="Itilde" unicode="&#x128;" horiz-adv-x="273" 
d="M162 654h108l-130 -654h-108zM65 707q14 54 44.5 86t65.5 32q20 0 34 -8t25.5 -17.5t23 -17.5t26.5 -8q27 0 45 49h58q-14 -54 -44 -86t-65 -32q-21 0 -35 8t-25.5 17.5t-22.5 17.5t-26 8q-28 0 -46 -49h-58z" />
    <glyph glyph-name="Idieresis" unicode="&#xcf;" horiz-adv-x="273" 
d="M162 654h108l-130 -654h-108zM132 708q-21 0 -35 13t-14 36q0 25 18 45t44 20q20 0 34.5 -13t14.5 -36q0 -24 -18 -44.5t-44 -20.5zM310 708q-21 0 -35 13t-14 36q0 25 18 45t44 20q20 0 34.5 -13t14.5 -36q0 -24 -18 -44.5t-44 -20.5z" />
    <glyph glyph-name="Imacron" unicode="&#x12a;" horiz-adv-x="273" 
d="M162 654h108l-130 -654h-108zM107 796h252l-14 -72h-252z" />
    <glyph glyph-name="Idotaccent" unicode="&#x130;" horiz-adv-x="273" 
d="M162 654h108l-130 -654h-108zM223 709q-24 0 -43 14t-19 42q0 29 21.5 49.5t50.5 20.5q24 0 43 -15t19 -42q0 -30 -21 -49.5t-51 -19.5z" />
    <glyph glyph-name="uni01CF" unicode="&#x1cf;" horiz-adv-x="273" 
d="M162 654h108l-130 -654h-108zM267 704h-103l-70 114h80l46 -66h3l71 66h87z" />
    <glyph glyph-name="uni1EC8" unicode="&#x1ec8;" horiz-adv-x="273" 
d="M162 654h108l-130 -654h-108zM185 876q71 -3 100.5 -23.5t29.5 -49.5q0 -25 -10.5 -43.5t-29.5 -31.5t-44 -21.5t-53 -12.5l-5 45q28 7 44 16.5t16 28.5q0 15 -14.5 24t-55.5 11z" />
    <glyph glyph-name="uni1ECA" unicode="&#x1eca;" horiz-adv-x="273" 
d="M162 654h108l-130 -654h-108zM56 -217q-23 0 -42 14.5t-19 41.5q0 29 21 49.5t51 20.5q23 0 42 -14.5t19 -41.5q0 -30 -21 -50t-51 -20z" />
    <glyph glyph-name="Iogonek" unicode="&#x12e;" horiz-adv-x="273" 
d="M49 -110q0 -17 10.5 -26t25.5 -9q14 0 31 10l22 -53q-18 -13 -44.5 -20.5t-46.5 -7.5q-37 0 -60.5 18.5t-23.5 53.5q0 24 10 46t24 41t30 33.5t28 23.5h-23l130 654h108l-130 -654q-43 -21 -67 -52.5t-24 -57.5z" />
    <glyph glyph-name="Jcircumflex" unicode="&#x134;" horiz-adv-x="474" 
d="M385 194q-8 -44 -25.5 -81.5t-44 -65t-63.5 -43.5t-84 -16q-58 0 -103 26.5t-70 73.5l68 63q14 -31 40.5 -50.5t64.5 -19.5q45 0 72.5 33.5t40.5 96.5l88 443h108l-92 -460v0zM391 818h104l69 -114h-80l-46 66h-3l-70 -66h-88z" />
    <glyph glyph-name="uni0136" unicode="&#x136;" horiz-adv-x="582" 
d="M162 654h108l-59 -296h4l286 296h119l-241 -260l147 -394h-112l-115 326l-118 -120l-41 -206h-108zM249 -42q40 -8 63 -24t23 -46q0 -28 -13.5 -46.5t-36.5 -30t-53 -17.5t-63 -8l-4 45q45 5 68.5 16.5t23.5 34.5q0 14 -10.5 22t-26.5 13z" />
    <glyph glyph-name="Lacute" unicode="&#x139;" horiz-adv-x="481" 
d="M162 654h108l-112 -563h261l-18 -91h-369zM268 818h119l-133 -114h-90z" />
    <glyph glyph-name="Lcaron" unicode="&#x13d;" horiz-adv-x="481" 
d="M162 654h108l-112 -563h261l-18 -91h-369zM380 511l40 217h71l-13 -63l-49 -154h-49z" />
    <glyph glyph-name="uni013B" unicode="&#x13b;" horiz-adv-x="481" 
d="M162 654h108l-112 -563h261l-18 -91h-369zM196 -42q40 -8 63 -24t23 -46q0 -28 -13.5 -46.5t-36.5 -30t-53 -17.5t-63 -8l-4 45q45 5 68.5 16.5t23.5 34.5q0 14 -10.5 22t-26.5 13z" />
    <glyph glyph-name="Ldot" unicode="&#x13f;" horiz-adv-x="481" 
d="M162 654h108l-112 -563h261l-18 -91h-369zM383 254q-27 0 -43 17.5t-16 44.5q0 16 6 31.5t17.5 27.5t26.5 19.5t33 7.5q27 0 42.5 -18t15.5 -45q0 -16 -6 -31.5t-16.5 -27.5t-26 -19t-33.5 -7z" />
    <glyph glyph-name="uni1E36" unicode="&#x1e36;" horiz-adv-x="481" 
d="M162 654h108l-112 -563h261l-18 -91h-369zM197 -214q-23 0 -42 14.5t-19 41.5q0 29 21 49.5t51 20.5q23 0 42 -14.5t19 -41.5q0 -30 -21 -50t-51 -20z" />
    <glyph glyph-name="uni1E38" unicode="&#x1e38;" horiz-adv-x="481" 
d="M162 654h108l-112 -563h261l-18 -91h-369zM118 796h252l-14 -72h-252zM197 -214q-23 0 -42 14.5t-19 41.5q0 29 21 49.5t51 20.5q23 0 42 -14.5t19 -41.5q0 -30 -21 -50t-51 -20z" />
    <glyph glyph-name="uni1E3A" unicode="&#x1e3a;" horiz-adv-x="481" 
d="M162 654h108l-112 -563h261l-18 -91h-369zM87 -100h249l-13 -71h-250z" />
    <glyph glyph-name="Lslash" unicode="&#x141;" horiz-adv-x="481" 
d="M419 91l-18 -91h-369l44 219l-82 -40l18 92l82 40l68 343h108l-57 -288l193 96l-18 -92l-194 -96l-36 -183h261z" />
    <glyph glyph-name="uni1E42" unicode="&#x1e42;" horiz-adv-x="723" 
d="M162 654h120l52 -327l19 -126h4l65 126l180 327h119l-131 -654h-102l65 314q5 23 11.5 49.5l13.5 53.5l14 53t14 49h-3l-80 -148l-173 -307h-50l-54 307l-21 148h-4l-11.5 -102.5t-15.5 -102.5l-63 -314h-99zM285 -222q-23 0 -42 14.5t-19 41.5q0 29 21 49.5t51 20.5
q23 0 42 -14.5t19 -41.5q0 -30 -21 -50t-51 -20z" />
    <glyph glyph-name="Nacute" unicode="&#x143;" horiz-adv-x="631" 
d="M162 654h106l128 -379l38 -141h4q6 51 12 110t17 113l59 297h104l-131 -654h-105l-127 378l-38 143h-4l-13 -110t-18 -111l-59 -300h-103zM445 818h119l-133 -114h-90z" />
    <glyph glyph-name="Ncaron" unicode="&#x147;" horiz-adv-x="631" 
d="M162 654h106l128 -379l38 -141h4q6 51 12 110t17 113l59 297h104l-131 -654h-105l-127 378l-38 143h-4l-13 -110t-18 -111l-59 -300h-103zM455 704h-103l-70 114h80l46 -66h3l71 66h87z" />
    <glyph glyph-name="Ntilde" unicode="&#xd1;" horiz-adv-x="631" 
d="M162 654h106l128 -379l38 -141h4q6 51 12 110t17 113l59 297h104l-131 -654h-105l-127 378l-38 143h-4l-13 -110t-18 -111l-59 -300h-103zM253 707q14 54 44.5 86t65.5 32q20 0 34 -8t25.5 -17.5t23 -17.5t26.5 -8q27 0 45 49h58q-14 -54 -44 -86t-65 -32q-21 0 -35 8
t-25.5 17.5t-22.5 17.5t-26 8q-28 0 -46 -49h-58z" />
    <glyph glyph-name="uni0145" unicode="&#x145;" horiz-adv-x="631" 
d="M162 654h106l128 -379l38 -141h4q6 51 12 110t17 113l59 297h104l-131 -654h-105l-127 378l-38 143h-4l-13 -110t-18 -111l-59 -300h-103zM252 -50q40 -8 63 -24t23 -46q0 -28 -13.5 -46.5t-36.5 -30t-53 -17.5t-63 -8l-4 45q45 5 68.5 16.5t23.5 34.5q0 14 -10.5 22
t-26.5 13z" />
    <glyph glyph-name="uni1E44" unicode="&#x1e44;" horiz-adv-x="631" 
d="M162 654h106l128 -379l38 -141h4q6 51 12 110t17 113l59 297h104l-131 -654h-105l-127 378l-38 143h-4l-13 -110t-18 -111l-59 -300h-103zM411 709q-24 0 -43 14t-19 42q0 29 21.5 49.5t50.5 20.5q24 0 43 -15t19 -42q0 -30 -21 -49.5t-51 -19.5z" />
    <glyph glyph-name="uni1E46" unicode="&#x1e46;" horiz-adv-x="631" 
d="M162 654h106l128 -379l38 -141h4q6 51 12 110t17 113l59 297h104l-131 -654h-105l-127 378l-38 143h-4l-13 -110t-18 -111l-59 -300h-103zM253 -222q-23 0 -42 14.5t-19 41.5q0 29 21 49.5t51 20.5q23 0 42 -14.5t19 -41.5q0 -30 -21 -50t-51 -20z" />
    <glyph glyph-name="uni1E48" unicode="&#x1e48;" horiz-adv-x="631" 
d="M162 654h106l128 -379l38 -141h4q6 51 12 110t17 113l59 297h104l-131 -654h-105l-127 378l-38 143h-4l-13 -110t-18 -111l-59 -300h-103zM143 -108h249l-13 -71h-250z" />
    <glyph glyph-name="Ograve" unicode="&#xd2;" horiz-adv-x="647" 
d="M294 -12q-55 0 -99 19t-74.5 55t-46.5 87t-16 114q0 81 25.5 154t69.5 128.5t103.5 88t127.5 32.5q55 0 99 -19t74.5 -55t46.5 -87t16 -114q0 -81 -25 -154t-69 -128.5t-103.5 -88t-128.5 -32.5zM378 573q-44 0 -82 -26t-66 -68t-44.5 -96.5t-16.5 -111.5
q0 -88 32.5 -139t98.5 -51q43 0 81.5 26t67 68t45 96.5t16.5 111.5q0 88 -33 139t-99 51zM292 818h110l63 -114h-83z" />
    <glyph glyph-name="Oacute" unicode="&#xd3;" horiz-adv-x="647" 
d="M294 -12q-55 0 -99 19t-74.5 55t-46.5 87t-16 114q0 81 25.5 154t69.5 128.5t103.5 88t127.5 32.5q55 0 99 -19t74.5 -55t46.5 -87t16 -114q0 -81 -25 -154t-69 -128.5t-103.5 -88t-128.5 -32.5zM378 573q-44 0 -82 -26t-66 -68t-44.5 -96.5t-16.5 -111.5
q0 -88 32.5 -139t98.5 -51q43 0 81.5 26t67 68t45 96.5t16.5 111.5q0 88 -33 139t-99 51zM450 818h119l-133 -114h-90z" />
    <glyph glyph-name="Ocircumflex" unicode="&#xd4;" horiz-adv-x="647" 
d="M294 -12q-55 0 -99 19t-74.5 55t-46.5 87t-16 114q0 81 25.5 154t69.5 128.5t103.5 88t127.5 32.5q55 0 99 -19t74.5 -55t46.5 -87t16 -114q0 -81 -25 -154t-69 -128.5t-103.5 -88t-128.5 -32.5zM378 573q-44 0 -82 -26t-66 -68t-44.5 -96.5t-16.5 -111.5
q0 -88 32.5 -139t98.5 -51q43 0 81.5 26t67 68t45 96.5t16.5 111.5q0 88 -33 139t-99 51zM378 818h104l69 -114h-80l-46 66h-3l-70 -66h-88z" />
    <glyph glyph-name="Otilde" unicode="&#xd5;" horiz-adv-x="647" 
d="M294 -12q-55 0 -99 19t-74.5 55t-46.5 87t-16 114q0 81 25.5 154t69.5 128.5t103.5 88t127.5 32.5q55 0 99 -19t74.5 -55t46.5 -87t16 -114q0 -81 -25 -154t-69 -128.5t-103.5 -88t-128.5 -32.5zM378 573q-44 0 -82 -26t-66 -68t-44.5 -96.5t-16.5 -111.5
q0 -88 32.5 -139t98.5 -51q43 0 81.5 26t67 68t45 96.5t16.5 111.5q0 88 -33 139t-99 51zM258 707q14 54 44.5 86t65.5 32q20 0 34 -8t25.5 -17.5t23 -17.5t26.5 -8q27 0 45 49h58q-14 -54 -44 -86t-65 -32q-21 0 -35 8t-25.5 17.5t-22.5 17.5t-26 8q-28 0 -46 -49h-58z" />
    <glyph glyph-name="Odieresis" unicode="&#xd6;" horiz-adv-x="647" 
d="M294 -12q-55 0 -99 19t-74.5 55t-46.5 87t-16 114q0 81 25.5 154t69.5 128.5t103.5 88t127.5 32.5q55 0 99 -19t74.5 -55t46.5 -87t16 -114q0 -81 -25 -154t-69 -128.5t-103.5 -88t-128.5 -32.5zM378 573q-44 0 -82 -26t-66 -68t-44.5 -96.5t-16.5 -111.5
q0 -88 32.5 -139t98.5 -51q43 0 81.5 26t67 68t45 96.5t16.5 111.5q0 88 -33 139t-99 51zM325 708q-21 0 -35 13t-14 36q0 25 18 45t44 20q20 0 34.5 -13t14.5 -36q0 -24 -18 -44.5t-44 -20.5zM503 708q-21 0 -35 13t-14 36q0 25 18 45t44 20q20 0 34.5 -13t14.5 -36
q0 -24 -18 -44.5t-44 -20.5z" />
    <glyph glyph-name="Omacron" unicode="&#x14c;" horiz-adv-x="647" 
d="M294 -12q-55 0 -99 19t-74.5 55t-46.5 87t-16 114q0 81 25.5 154t69.5 128.5t103.5 88t127.5 32.5q55 0 99 -19t74.5 -55t46.5 -87t16 -114q0 -81 -25 -154t-69 -128.5t-103.5 -88t-128.5 -32.5zM378 573q-44 0 -82 -26t-66 -68t-44.5 -96.5t-16.5 -111.5
q0 -88 32.5 -139t98.5 -51q43 0 81.5 26t67 68t45 96.5t16.5 111.5q0 88 -33 139t-99 51zM300 796h252l-14 -72h-252z" />
    <glyph glyph-name="Ohungarumlaut" unicode="&#x150;" horiz-adv-x="647" 
d="M294 -12q-55 0 -99 19t-74.5 55t-46.5 87t-16 114q0 81 25.5 154t69.5 128.5t103.5 88t127.5 32.5q55 0 99 -19t74.5 -55t46.5 -87t16 -114q0 -81 -25 -154t-69 -128.5t-103.5 -88t-128.5 -32.5zM378 573q-44 0 -82 -26t-66 -68t-44.5 -96.5t-16.5 -111.5
q0 -88 32.5 -139t98.5 -51q43 0 81.5 26t67 68t45 96.5t16.5 111.5q0 88 -33 139t-99 51zM378 819h94l-107 -115h-74zM537 819h94l-106 -115h-74z" />
    <glyph glyph-name="uni01D1" unicode="&#x1d1;" horiz-adv-x="647" 
d="M294 -12q-55 0 -99 19t-74.5 55t-46.5 87t-16 114q0 81 25.5 154t69.5 128.5t103.5 88t127.5 32.5q55 0 99 -19t74.5 -55t46.5 -87t16 -114q0 -81 -25 -154t-69 -128.5t-103.5 -88t-128.5 -32.5zM378 573q-44 0 -82 -26t-66 -68t-44.5 -96.5t-16.5 -111.5
q0 -88 32.5 -139t98.5 -51q43 0 81.5 26t67 68t45 96.5t16.5 111.5q0 88 -33 139t-99 51zM460 704h-103l-70 114h80l46 -66h3l71 66h87z" />
    <glyph glyph-name="uni1ECC" unicode="&#x1ecc;" horiz-adv-x="647" 
d="M294 -12q-55 0 -99 19t-74.5 55t-46.5 87t-16 114q0 81 25.5 154t69.5 128.5t103.5 88t127.5 32.5q55 0 99 -19t74.5 -55t46.5 -87t16 -114q0 -81 -25 -154t-69 -128.5t-103.5 -88t-128.5 -32.5zM378 573q-44 0 -82 -26t-66 -68t-44.5 -96.5t-16.5 -111.5
q0 -88 32.5 -139t98.5 -51q43 0 81.5 26t67 68t45 96.5t16.5 111.5q0 88 -33 139t-99 51zM252 -214q-23 0 -42 14.5t-19 41.5q0 29 21 49.5t51 20.5q23 0 42 -14.5t19 -41.5q0 -30 -21 -50t-51 -20z" />
    <glyph glyph-name="uni1ECE" unicode="&#x1ece;" horiz-adv-x="647" 
d="M294 -12q-55 0 -99 19t-74.5 55t-46.5 87t-16 114q0 81 25.5 154t69.5 128.5t103.5 88t127.5 32.5q55 0 99 -19t74.5 -55t46.5 -87t16 -114q0 -81 -25 -154t-69 -128.5t-103.5 -88t-128.5 -32.5zM378 573q-44 0 -82 -26t-66 -68t-44.5 -96.5t-16.5 -111.5
q0 -88 32.5 -139t98.5 -51q43 0 81.5 26t67 68t45 96.5t16.5 111.5q0 88 -33 139t-99 51zM378 876q71 -3 100.5 -23.5t29.5 -49.5q0 -25 -10.5 -43.5t-29.5 -31.5t-44 -21.5t-53 -12.5l-5 45q28 7 44 16.5t16 28.5q0 15 -14.5 24t-55.5 11z" />
    <glyph glyph-name="uni1ED0" unicode="&#x1ed0;" horiz-adv-x="647" 
d="M294 -12q-55 0 -99 19t-74.5 55t-46.5 87t-16 114q0 81 25.5 154t69.5 128.5t103.5 88t127.5 32.5q55 0 99 -19t74.5 -55t46.5 -87t16 -114q0 -81 -25 -154t-69 -128.5t-103.5 -88t-128.5 -32.5zM378 573q-44 0 -82 -26t-66 -68t-44.5 -96.5t-16.5 -111.5
q0 -88 32.5 -139t98.5 -51q43 0 81.5 26t67 68t45 96.5t16.5 111.5q0 88 -33 139t-99 51zM612 883h84l-104 -115h-63zM388 812h92l69 -108h-78l-44 59h-4l-67 -59h-79z" />
    <glyph glyph-name="uni1ED2" unicode="&#x1ed2;" horiz-adv-x="647" 
d="M294 -12q-55 0 -99 19t-74.5 55t-46.5 87t-16 114q0 81 25.5 154t69.5 128.5t103.5 88t127.5 32.5q55 0 99 -19t74.5 -55t46.5 -87t16 -114q0 -81 -25 -154t-69 -128.5t-103.5 -88t-128.5 -32.5zM378 573q-44 0 -82 -26t-66 -68t-44.5 -96.5t-16.5 -111.5
q0 -88 32.5 -139t98.5 -51q43 0 81.5 26t67 68t45 96.5t16.5 111.5q0 88 -33 139t-99 51zM628 768h-63l-62 115h84zM388 812h92l69 -108h-78l-44 59h-4l-67 -59h-79z" />
    <glyph glyph-name="uni1ED4" unicode="&#x1ed4;" horiz-adv-x="647" 
d="M294 -12q-55 0 -99 19t-74.5 55t-46.5 87t-16 114q0 81 25.5 154t69.5 128.5t103.5 88t127.5 32.5q55 0 99 -19t74.5 -55t46.5 -87t16 -114q0 -81 -25 -154t-69 -128.5t-103.5 -88t-128.5 -32.5zM378 573q-44 0 -82 -26t-66 -68t-44.5 -96.5t-16.5 -111.5
q0 -88 32.5 -139t98.5 -51q43 0 81.5 26t67 68t45 96.5t16.5 111.5q0 88 -33 139t-99 51zM388 812h92l69 -108h-78l-44 59h-4l-67 -59h-79zM547 909q63 -2 88 -19.5t25 -43.5q0 -45 -32 -66t-83 -29l-5 38q24 6 36.5 16t12.5 27q0 13 -13 20.5t-48 9.5z" />
    <glyph glyph-name="uni1ED6" unicode="&#x1ed6;" horiz-adv-x="647" 
d="M294 -12q-55 0 -99 19t-74.5 55t-46.5 87t-16 114q0 81 25.5 154t69.5 128.5t103.5 88t127.5 32.5q55 0 99 -19t74.5 -55t46.5 -87t16 -114q0 -81 -25 -154t-69 -128.5t-103.5 -88t-128.5 -32.5zM378 573q-44 0 -82 -26t-66 -68t-44.5 -96.5t-16.5 -111.5
q0 -88 32.5 -139t98.5 -51q43 0 81.5 26t67 68t45 96.5t16.5 111.5q0 88 -33 139t-99 51zM388 812h92l69 -108h-78l-44 59h-4l-67 -59h-79zM304 847q14 49 41 76t59 27q16 0 29 -7t24.5 -16t21.5 -16t22 -7q26 0 45 45h50q-14 -49 -41.5 -76t-58.5 -27q-17 0 -29.5 7
t-23.5 15.5t-21 15.5t-22 7q-29 0 -45 -44h-51z" />
    <glyph glyph-name="uni1ED8" unicode="&#x1ed8;" horiz-adv-x="647" 
d="M294 -12q-55 0 -99 19t-74.5 55t-46.5 87t-16 114q0 81 25.5 154t69.5 128.5t103.5 88t127.5 32.5q55 0 99 -19t74.5 -55t46.5 -87t16 -114q0 -81 -25 -154t-69 -128.5t-103.5 -88t-128.5 -32.5zM378 573q-44 0 -82 -26t-66 -68t-44.5 -96.5t-16.5 -111.5
q0 -88 32.5 -139t98.5 -51q43 0 81.5 26t67 68t45 96.5t16.5 111.5q0 88 -33 139t-99 51zM378 818h104l69 -114h-80l-46 66h-3l-70 -66h-88zM252 -214q-23 0 -42 14.5t-19 41.5q0 29 21 49.5t51 20.5q23 0 42 -14.5t19 -41.5q0 -30 -21 -50t-51 -20z" />
    <glyph glyph-name="Oslash" unicode="&#xd8;" horiz-adv-x="647" 
d="M202 131q34 -50 98 -50q43 0 81.5 26t67 68t45 96.5t16.5 111.5q0 36 -6 66zM479 519q-17 26 -42 40t-59 14q-44 0 -82 -26t-66 -68t-44.5 -96.5t-16.5 -111.5q0 -38 6 -71zM590 540q30 -62 30 -149q0 -81 -25 -154t-69 -128.5t-103.5 -88t-128.5 -32.5q-103 0 -166 66
l-84 -89l-50 45l96 100q-32 64 -32 153q0 81 25.5 154t69.5 128.5t103.5 88t127.5 32.5q54 0 96.5 -18t72.5 -51l91 95l48 -45z" />
    <glyph glyph-name="OE" unicode="&#x152;" horiz-adv-x="825" 
d="M58 256q0 93 25.5 167t72.5 125t112.5 78.5t146.5 27.5h431l-18 -91h-252l-34 -176h211l-18 -91h-211l-42 -205h261l-18 -91h-383q-137 0 -210.5 65.5t-73.5 190.5zM417 567q-55 0 -100.5 -20.5t-78.5 -59.5t-51 -95.5t-18 -128.5q0 -88 46 -132t130 -44h30l95 480h-53z
" />
    <glyph glyph-name="Ohorn" unicode="&#x1a0;" horiz-adv-x="647" 
d="M300 81q43 0 81.5 26t67 68t45 96.5t16.5 111.5q0 88 -33 139t-99 51q-44 0 -82 -26t-66 -68t-44.5 -96.5t-16.5 -111.5q0 -88 32.5 -139t98.5 -51zM668 770q12 -29 12 -54q0 -45 -33 -78t-91 -44q31 -36 47.5 -87t16.5 -116q0 -81 -25 -154t-69 -128.5t-103.5 -88
t-128.5 -32.5q-55 0 -99 19t-74.5 55t-46.5 87t-16 114q0 81 25.5 154t69.5 128.5t103.5 88t127.5 32.5q70 0 120 -30q41 4 65 24t24 49q0 15 -6 35z" />
    <glyph glyph-name="uni1EDA" unicode="&#x1eda;" horiz-adv-x="647" 
d="M300 81q43 0 81.5 26t67 68t45 96.5t16.5 111.5q0 88 -33 139t-99 51q-44 0 -82 -26t-66 -68t-44.5 -96.5t-16.5 -111.5q0 -88 32.5 -139t98.5 -51zM668 770q12 -29 12 -54q0 -45 -33 -78t-91 -44q31 -36 47.5 -87t16.5 -116q0 -81 -25 -154t-69 -128.5t-103.5 -88
t-128.5 -32.5q-55 0 -99 19t-74.5 55t-46.5 87t-16 114q0 81 25.5 154t69.5 128.5t103.5 88t127.5 32.5q70 0 120 -30q41 4 65 24t24 49q0 15 -6 35zM436 818h119l-133 -114h-90z" />
    <glyph glyph-name="uni1EDC" unicode="&#x1edc;" horiz-adv-x="647" 
d="M300 81q43 0 81.5 26t67 68t45 96.5t16.5 111.5q0 88 -33 139t-99 51q-44 0 -82 -26t-66 -68t-44.5 -96.5t-16.5 -111.5q0 -88 32.5 -139t98.5 -51zM668 770q12 -29 12 -54q0 -45 -33 -78t-91 -44q31 -36 47.5 -87t16.5 -116q0 -81 -25 -154t-69 -128.5t-103.5 -88
t-128.5 -32.5q-55 0 -99 19t-74.5 55t-46.5 87t-16 114q0 81 25.5 154t69.5 128.5t103.5 88t127.5 32.5q70 0 120 -30q41 4 65 24t24 49q0 15 -6 35zM278 818h110l63 -114h-83z" />
    <glyph glyph-name="uni1EDE" unicode="&#x1ede;" horiz-adv-x="647" 
d="M300 81q43 0 81.5 26t67 68t45 96.5t16.5 111.5q0 88 -33 139t-99 51q-44 0 -82 -26t-66 -68t-44.5 -96.5t-16.5 -111.5q0 -88 32.5 -139t98.5 -51zM668 770q12 -29 12 -54q0 -45 -33 -78t-91 -44q31 -36 47.5 -87t16.5 -116q0 -81 -25 -154t-69 -128.5t-103.5 -88
t-128.5 -32.5q-55 0 -99 19t-74.5 55t-46.5 87t-16 114q0 81 25.5 154t69.5 128.5t103.5 88t127.5 32.5q70 0 120 -30q41 4 65 24t24 49q0 15 -6 35zM364 876q71 -3 100.5 -23.5t29.5 -49.5q0 -25 -10.5 -43.5t-29.5 -31.5t-44 -21.5t-53 -12.5l-5 45q28 7 44 16.5t16 28.5
q0 15 -14.5 24t-55.5 11z" />
    <glyph glyph-name="uni1EE0" unicode="&#x1ee0;" horiz-adv-x="647" 
d="M300 81q43 0 81.5 26t67 68t45 96.5t16.5 111.5q0 88 -33 139t-99 51q-44 0 -82 -26t-66 -68t-44.5 -96.5t-16.5 -111.5q0 -88 32.5 -139t98.5 -51zM668 770q12 -29 12 -54q0 -45 -33 -78t-91 -44q31 -36 47.5 -87t16.5 -116q0 -81 -25 -154t-69 -128.5t-103.5 -88
t-128.5 -32.5q-55 0 -99 19t-74.5 55t-46.5 87t-16 114q0 81 25.5 154t69.5 128.5t103.5 88t127.5 32.5q70 0 120 -30q41 4 65 24t24 49q0 15 -6 35zM244 707q14 54 44.5 86t65.5 32q20 0 34 -8t25.5 -17.5t23 -17.5t26.5 -8q27 0 45 49h58q-14 -54 -44 -86t-65 -32
q-21 0 -35 8t-25.5 17.5t-22.5 17.5t-26 8q-28 0 -46 -49h-58z" />
    <glyph glyph-name="uni1EE2" unicode="&#x1ee2;" horiz-adv-x="647" 
d="M300 81q43 0 81.5 26t67 68t45 96.5t16.5 111.5q0 88 -33 139t-99 51q-44 0 -82 -26t-66 -68t-44.5 -96.5t-16.5 -111.5q0 -88 32.5 -139t98.5 -51zM668 770q12 -29 12 -54q0 -45 -33 -78t-91 -44q31 -36 47.5 -87t16.5 -116q0 -81 -25 -154t-69 -128.5t-103.5 -88
t-128.5 -32.5q-55 0 -99 19t-74.5 55t-46.5 87t-16 114q0 81 25.5 154t69.5 128.5t103.5 88t127.5 32.5q70 0 120 -30q41 4 65 24t24 49q0 15 -6 35zM250 -214q-23 0 -42 14.5t-19 41.5q0 29 21 49.5t51 20.5q23 0 42 -14.5t19 -41.5q0 -30 -21 -50t-51 -20z" />
    <glyph glyph-name="uni01EA" unicode="&#x1ea;" horiz-adv-x="647" 
d="M378 573q-44 0 -82 -26t-66 -68t-44.5 -96.5t-16.5 -111.5q0 -88 32.5 -139t98.5 -51q43 0 81.5 26t67 68t45 96.5t16.5 111.5q0 88 -33 139t-99 51zM620 391q0 -66 -16.5 -127t-48.5 -112.5t-79.5 -91t-108.5 -63.5q-55 -22 -79 -51.5t-24 -55.5q0 -17 10.5 -26t24.5 -9
q15 0 31 10l22 -55q-19 -12 -44 -19t-46 -7q-38 0 -61.5 18.5t-23.5 53.5q0 22 8.5 42.5t21 38t27.5 31t28 22.5q-97 12 -150.5 83.5t-53.5 189.5q0 81 25.5 154t69.5 128.5t103.5 88t127.5 32.5q55 0 99 -19t74.5 -55t46.5 -87t16 -114z" />
    <glyph glyph-name="Racute" unicode="&#x154;" horiz-adv-x="576" 
d="M292 344q84 0 127 36.5t43 98.5q0 48 -32.5 68.5t-95.5 20.5h-82l-43 -224h83zM355 654q47 0 86 -8.5t67.5 -28t44.5 -50t16 -73.5q0 -46 -13.5 -82.5t-37.5 -64.5t-56.5 -47t-71.5 -29l108 -271h-115l-95 258h-97l-51 -258h-108l130 654h193zM413 818h119l-133 -114h-90
z" />
    <glyph glyph-name="Rcaron" unicode="&#x158;" horiz-adv-x="576" 
d="M292 344q84 0 127 36.5t43 98.5q0 48 -32.5 68.5t-95.5 20.5h-82l-43 -224h83zM355 654q47 0 86 -8.5t67.5 -28t44.5 -50t16 -73.5q0 -46 -13.5 -82.5t-37.5 -64.5t-56.5 -47t-71.5 -29l108 -271h-115l-95 258h-97l-51 -258h-108l130 654h193zM423 704h-103l-70 114h80
l46 -66h3l71 66h87z" />
    <glyph glyph-name="uni0156" unicode="&#x156;" horiz-adv-x="576" 
d="M292 344q84 0 127 36.5t43 98.5q0 48 -32.5 68.5t-95.5 20.5h-82l-43 -224h83zM355 654q47 0 86 -8.5t67.5 -28t44.5 -50t16 -73.5q0 -46 -13.5 -82.5t-37.5 -64.5t-56.5 -47t-71.5 -29l108 -271h-115l-95 258h-97l-51 -258h-108l130 654h193zM236 -50q40 -8 63 -24
t23 -46q0 -28 -13.5 -46.5t-36.5 -30t-53 -17.5t-63 -8l-4 45q45 5 68.5 16.5t23.5 34.5q0 14 -10.5 22t-26.5 13z" />
    <glyph glyph-name="uni1E5A" unicode="&#x1e5a;" horiz-adv-x="576" 
d="M292 344q84 0 127 36.5t43 98.5q0 48 -32.5 68.5t-95.5 20.5h-82l-43 -224h83zM355 654q47 0 86 -8.5t67.5 -28t44.5 -50t16 -73.5q0 -46 -13.5 -82.5t-37.5 -64.5t-56.5 -47t-71.5 -29l108 -271h-115l-95 258h-97l-51 -258h-108l130 654h193zM237 -222q-23 0 -42 14.5
t-19 41.5q0 29 21 49.5t51 20.5q23 0 42 -14.5t19 -41.5q0 -30 -21 -50t-51 -20z" />
    <glyph glyph-name="uni1E5C" unicode="&#x1e5c;" horiz-adv-x="576" 
d="M292 344q84 0 127 36.5t43 98.5q0 48 -32.5 68.5t-95.5 20.5h-82l-43 -224h83zM355 654q47 0 86 -8.5t67.5 -28t44.5 -50t16 -73.5q0 -46 -13.5 -82.5t-37.5 -64.5t-56.5 -47t-71.5 -29l108 -271h-115l-95 258h-97l-51 -258h-108l130 654h193zM263 796h252l-14 -72h-252z
M237 -222q-23 0 -42 14.5t-19 41.5q0 29 21 49.5t51 20.5q23 0 42 -14.5t19 -41.5q0 -30 -21 -50t-51 -20z" />
    <glyph glyph-name="uni1E5E" unicode="&#x1e5e;" horiz-adv-x="576" 
d="M292 344q84 0 127 36.5t43 98.5q0 48 -32.5 68.5t-95.5 20.5h-82l-43 -224h83zM355 654q47 0 86 -8.5t67.5 -28t44.5 -50t16 -73.5q0 -46 -13.5 -82.5t-37.5 -64.5t-56.5 -47t-71.5 -29l108 -271h-115l-95 258h-97l-51 -258h-108l130 654h193zM127 -108h249l-13 -71h-250
z" />
    <glyph glyph-name="Sacute" unicode="&#x15a;" horiz-adv-x="518" 
d="M86 167q29 -40 69 -63.5t88 -23.5q51 0 84 26.5t33 72.5q0 31 -21.5 51.5t-57.5 42.5l-69 42q-43 26 -71 63.5t-28 95.5q0 39 16.5 74t46 61.5t69 41.5t85.5 15q59 0 108 -26.5t84 -69.5l-69 -63q-25 28 -56.5 47t-72.5 19q-48 0 -74 -27t-26 -61q0 -32 22.5 -51.5
t60.5 -42.5l70 -42q48 -28 71.5 -63t23.5 -92q0 -44 -17 -81.5t-48.5 -65.5t-75.5 -43.5t-97 -15.5q-66 0 -123.5 28t-102.5 91zM394 822h119l-133 -114h-90z" />
    <glyph glyph-name="Scircumflex" unicode="&#x15c;" horiz-adv-x="518" 
d="M86 167q29 -40 69 -63.5t88 -23.5q51 0 84 26.5t33 72.5q0 31 -21.5 51.5t-57.5 42.5l-69 42q-43 26 -71 63.5t-28 95.5q0 39 16.5 74t46 61.5t69 41.5t85.5 15q59 0 108 -26.5t84 -69.5l-69 -63q-25 28 -56.5 47t-72.5 19q-48 0 -74 -27t-26 -61q0 -32 22.5 -51.5
t60.5 -42.5l70 -42q48 -28 71.5 -63t23.5 -92q0 -44 -17 -81.5t-48.5 -65.5t-75.5 -43.5t-97 -15.5q-66 0 -123.5 28t-102.5 91zM322 822h104l69 -114h-80l-46 66h-3l-70 -66h-88z" />
    <glyph glyph-name="Scaron" unicode="&#x160;" horiz-adv-x="518" 
d="M86 167q29 -40 69 -63.5t88 -23.5q51 0 84 26.5t33 72.5q0 31 -21.5 51.5t-57.5 42.5l-69 42q-43 26 -71 63.5t-28 95.5q0 39 16.5 74t46 61.5t69 41.5t85.5 15q59 0 108 -26.5t84 -69.5l-69 -63q-25 28 -56.5 47t-72.5 19q-48 0 -74 -27t-26 -61q0 -32 22.5 -51.5
t60.5 -42.5l70 -42q48 -28 71.5 -63t23.5 -92q0 -44 -17 -81.5t-48.5 -65.5t-75.5 -43.5t-97 -15.5q-66 0 -123.5 28t-102.5 91zM404 708h-103l-70 114h80l46 -66h3l71 66h87z" />
    <glyph glyph-name="uni015E" unicode="&#x15e;" horiz-adv-x="518" 
d="M86 167q29 -40 69 -63.5t88 -23.5q51 0 84 26.5t33 72.5q0 31 -21.5 51.5t-57.5 42.5l-69 42q-43 26 -71 63.5t-28 95.5q0 39 16.5 74t46 61.5t69 41.5t85.5 15q59 0 108 -26.5t84 -69.5l-69 -63q-25 28 -56.5 47t-72.5 19q-48 0 -74 -27t-26 -61q0 -32 22.5 -51.5
t60.5 -42.5l70 -42q48 -28 71.5 -63t23.5 -92q0 -44 -17 -81.5t-48.5 -65.5t-75.5 -43.5t-97 -15.5q-66 0 -123.5 28t-102.5 91zM208 3h66l-34 -52q19 -7 32 -21t13 -37q0 -27 -14 -46.5t-37.5 -32.5t-54.5 -20.5t-64 -9.5l-4 45q39 5 65.5 18t26.5 37q0 14 -10.5 23.5
t-38.5 17.5z" />
    <glyph glyph-name="uni0218" unicode="&#x218;" horiz-adv-x="518" 
d="M86 167q29 -40 69 -63.5t88 -23.5q51 0 84 26.5t33 72.5q0 31 -21.5 51.5t-57.5 42.5l-69 42q-43 26 -71 63.5t-28 95.5q0 39 16.5 74t46 61.5t69 41.5t85.5 15q59 0 108 -26.5t84 -69.5l-69 -63q-25 28 -56.5 47t-72.5 19q-48 0 -74 -27t-26 -61q0 -32 22.5 -51.5
t60.5 -42.5l70 -42q48 -28 71.5 -63t23.5 -92q0 -44 -17 -81.5t-48.5 -65.5t-75.5 -43.5t-97 -15.5q-66 0 -123.5 28t-102.5 91zM198 -50q40 -8 63 -24t23 -46q0 -28 -13.5 -46.5t-36.5 -30t-53 -17.5t-63 -8l-4 45q45 5 68.5 16.5t23.5 34.5q0 14 -10.5 22t-26.5 13z" />
    <glyph glyph-name="uni1E60" unicode="&#x1e60;" horiz-adv-x="518" 
d="M86 167q29 -40 69 -63.5t88 -23.5q51 0 84 26.5t33 72.5q0 31 -21.5 51.5t-57.5 42.5l-69 42q-43 26 -71 63.5t-28 95.5q0 39 16.5 74t46 61.5t69 41.5t85.5 15q59 0 108 -26.5t84 -69.5l-69 -63q-25 28 -56.5 47t-72.5 19q-48 0 -74 -27t-26 -61q0 -32 22.5 -51.5
t60.5 -42.5l70 -42q48 -28 71.5 -63t23.5 -92q0 -44 -17 -81.5t-48.5 -65.5t-75.5 -43.5t-97 -15.5q-66 0 -123.5 28t-102.5 91zM360 713q-24 0 -43 14t-19 42q0 29 21.5 49.5t50.5 20.5q24 0 43 -15t19 -42q0 -30 -21 -49.5t-51 -19.5z" />
    <glyph glyph-name="uni1E62" unicode="&#x1e62;" horiz-adv-x="518" 
d="M86 167q29 -40 69 -63.5t88 -23.5q51 0 84 26.5t33 72.5q0 31 -21.5 51.5t-57.5 42.5l-69 42q-43 26 -71 63.5t-28 95.5q0 39 16.5 74t46 61.5t69 41.5t85.5 15q59 0 108 -26.5t84 -69.5l-69 -63q-25 28 -56.5 47t-72.5 19q-48 0 -74 -27t-26 -61q0 -32 22.5 -51.5
t60.5 -42.5l70 -42q48 -28 71.5 -63t23.5 -92q0 -44 -17 -81.5t-48.5 -65.5t-75.5 -43.5t-97 -15.5q-66 0 -123.5 28t-102.5 91zM199 -222q-23 0 -42 14.5t-19 41.5q0 29 21 49.5t51 20.5q23 0 42 -14.5t19 -41.5q0 -30 -21 -50t-51 -20z" />
    <glyph glyph-name="uni1E9E" unicode="&#x1e9e;" horiz-adv-x="652" 
d="M118 433q10 51 31.5 94.5t55 75.5t80 50.5t106.5 18.5q43 0 80.5 -10.5t66.5 -33t48.5 -57.5t25.5 -84l-149 -131q68 -26 107 -69.5t39 -100.5q0 -42 -15 -78t-41.5 -62.5t-64 -42t-82.5 -15.5q-54 0 -100 20.5t-79 61.5l63 66q19 -26 45 -43.5t64 -17.5q20 0 38 8
t31.5 22t21.5 33t8 41q0 34 -33.5 67.5t-113.5 55.5l6 65l149 134q-14 42 -45.5 63t-76.5 21q-60 0 -103.5 -45t-60.5 -132l-80 -408h-108z" />
    <glyph glyph-name="Tcaron" unicode="&#x164;" horiz-adv-x="521" 
d="M269 562h-181l18 92h470l-18 -92h-181l-112 -562h-108zM392 704h-103l-70 114h80l46 -66h3l71 66h87z" />
    <glyph glyph-name="uni0162" unicode="&#x162;" horiz-adv-x="521" 
d="M269 562h-181l18 92h470l-18 -92h-181l-112 -562h-108zM179 3h66l-34 -52q19 -7 32 -21t13 -37q0 -27 -14 -46.5t-37.5 -32.5t-54.5 -20.5t-64 -9.5l-4 45q39 5 65.5 18t26.5 37q0 14 -10.5 23.5t-38.5 17.5z" />
    <glyph glyph-name="uni021A" unicode="&#x21a;" horiz-adv-x="521" 
d="M269 562h-181l18 92h470l-18 -92h-181l-112 -562h-108zM177 -42q40 -8 63 -24t23 -46q0 -28 -13.5 -46.5t-36.5 -30t-53 -17.5t-63 -8l-4 45q45 5 68.5 16.5t23.5 34.5q0 14 -10.5 22t-26.5 13z" />
    <glyph glyph-name="uni1E6C" unicode="&#x1e6c;" horiz-adv-x="521" 
d="M269 562h-181l18 92h470l-18 -92h-181l-112 -562h-108zM178 -214q-23 0 -42 14.5t-19 41.5q0 29 21 49.5t51 20.5q23 0 42 -14.5t19 -41.5q0 -30 -21 -50t-51 -20z" />
    <glyph glyph-name="uni1E6E" unicode="&#x1e6e;" horiz-adv-x="521" 
d="M269 562h-181l18 92h470l-18 -92h-181l-112 -562h-108zM68 -100h249l-13 -71h-250z" />
    <glyph glyph-name="Ugrave" unicode="&#xd9;" horiz-adv-x="630" 
d="M159 654h108l-73 -366q-9 -42 -9 -77q0 -63 27 -96.5t89 -33.5q52 0 89.5 42t57.5 141l78 390h106l-79 -390q-29 -146 -94 -211t-162 -65q-109 0 -164.5 54t-55.5 163q0 22 3.5 48t8.5 51zM284 818h110l63 -114h-83z" />
    <glyph glyph-name="Uacute" unicode="&#xda;" horiz-adv-x="630" 
d="M159 654h108l-73 -366q-9 -42 -9 -77q0 -63 27 -96.5t89 -33.5q52 0 89.5 42t57.5 141l78 390h106l-79 -390q-29 -146 -94 -211t-162 -65q-109 0 -164.5 54t-55.5 163q0 22 3.5 48t8.5 51zM442 818h119l-133 -114h-90z" />
    <glyph glyph-name="Ucircumflex" unicode="&#xdb;" horiz-adv-x="630" 
d="M159 654h108l-73 -366q-9 -42 -9 -77q0 -63 27 -96.5t89 -33.5q52 0 89.5 42t57.5 141l78 390h106l-79 -390q-29 -146 -94 -211t-162 -65q-109 0 -164.5 54t-55.5 163q0 22 3.5 48t8.5 51zM370 818h104l69 -114h-80l-46 66h-3l-70 -66h-88z" />
    <glyph glyph-name="Utilde" unicode="&#x168;" horiz-adv-x="630" 
d="M159 654h108l-73 -366q-9 -42 -9 -77q0 -63 27 -96.5t89 -33.5q52 0 89.5 42t57.5 141l78 390h106l-79 -390q-29 -146 -94 -211t-162 -65q-109 0 -164.5 54t-55.5 163q0 22 3.5 48t8.5 51zM250 707q14 54 44.5 86t65.5 32q20 0 34 -8t25.5 -17.5t23 -17.5t26.5 -8
q27 0 45 49h58q-14 -54 -44 -86t-65 -32q-21 0 -35 8t-25.5 17.5t-22.5 17.5t-26 8q-28 0 -46 -49h-58z" />
    <glyph glyph-name="Udieresis" unicode="&#xdc;" horiz-adv-x="630" 
d="M159 654h108l-73 -366q-9 -42 -9 -77q0 -63 27 -96.5t89 -33.5q52 0 89.5 42t57.5 141l78 390h106l-79 -390q-29 -146 -94 -211t-162 -65q-109 0 -164.5 54t-55.5 163q0 22 3.5 48t8.5 51zM317 708q-21 0 -35 13t-14 36q0 25 18 45t44 20q20 0 34.5 -13t14.5 -36
q0 -24 -18 -44.5t-44 -20.5zM495 708q-21 0 -35 13t-14 36q0 25 18 45t44 20q20 0 34.5 -13t14.5 -36q0 -24 -18 -44.5t-44 -20.5z" />
    <glyph glyph-name="Umacron" unicode="&#x16a;" horiz-adv-x="630" 
d="M159 654h108l-73 -366q-9 -42 -9 -77q0 -63 27 -96.5t89 -33.5q52 0 89.5 42t57.5 141l78 390h106l-79 -390q-29 -146 -94 -211t-162 -65q-109 0 -164.5 54t-55.5 163q0 22 3.5 48t8.5 51zM292 796h252l-14 -72h-252z" />
    <glyph glyph-name="Ubreve" unicode="&#x16c;" horiz-adv-x="630" 
d="M159 654h108l-73 -366q-9 -42 -9 -77q0 -63 27 -96.5t89 -33.5q52 0 89.5 42t57.5 141l78 390h106l-79 -390q-29 -146 -94 -211t-162 -65q-109 0 -164.5 54t-55.5 163q0 22 3.5 48t8.5 51zM400 704q-28 0 -48 9t-32.5 24.5t-17.5 36.5t-3 44h59q-2 -24 11 -40.5t41 -16.5
q29 0 47 17t27 40h61q-8 -24 -20 -44.5t-29.5 -36t-41 -24.5t-54.5 -9z" />
    <glyph glyph-name="Uring" unicode="&#x16e;" horiz-adv-x="630" 
d="M159 654h108l-73 -366q-9 -42 -9 -77q0 -63 27 -96.5t89 -33.5q52 0 89.5 42t57.5 141l78 390h106l-79 -390q-29 -146 -94 -211t-162 -65q-109 0 -164.5 54t-55.5 163q0 22 3.5 48t8.5 51zM410 697q-38 0 -65.5 19.5t-27.5 62.5q0 21 8.5 40.5t23 33.5t33.5 22.5t41 8.5
q38 0 65.5 -20.5t27.5 -62.5q0 -22 -8.5 -41t-23 -33t-33.5 -22t-41 -8zM421 839q-20 0 -34.5 -16.5t-14.5 -38.5q0 -19 10 -30.5t30 -11.5t34.5 16t14.5 39q0 18 -10.5 30t-29.5 12z" />
    <glyph glyph-name="Uhungarumlaut" unicode="&#x170;" horiz-adv-x="630" 
d="M159 654h108l-73 -366q-9 -42 -9 -77q0 -63 27 -96.5t89 -33.5q52 0 89.5 42t57.5 141l78 390h106l-79 -390q-29 -146 -94 -211t-162 -65q-109 0 -164.5 54t-55.5 163q0 22 3.5 48t8.5 51zM370 819h94l-107 -115h-74zM529 819h94l-106 -115h-74z" />
    <glyph glyph-name="uni01D3" unicode="&#x1d3;" horiz-adv-x="630" 
d="M159 654h108l-73 -366q-9 -42 -9 -77q0 -63 27 -96.5t89 -33.5q52 0 89.5 42t57.5 141l78 390h106l-79 -390q-29 -146 -94 -211t-162 -65q-109 0 -164.5 54t-55.5 163q0 22 3.5 48t8.5 51zM452 704h-103l-70 114h80l46 -66h3l71 66h87z" />
    <glyph glyph-name="uni01D5" unicode="&#x1d5;" horiz-adv-x="630" 
d="M159 654h108l-73 -366q-9 -42 -9 -77q0 -63 27 -96.5t89 -33.5q52 0 89.5 42t57.5 141l78 390h106l-79 -390q-29 -146 -94 -211t-162 -65q-109 0 -164.5 54t-55.5 163q0 22 3.5 48t8.5 51zM323 708q-19 0 -31.5 12t-12.5 33q0 22 16 40.5t41 18.5q20 0 32 -12t12 -32
q0 -23 -16 -41.5t-41 -18.5zM498 708q-19 0 -31.5 12t-12.5 33q0 22 16 40.5t42 18.5q18 0 31 -12t13 -32q0 -23 -16.5 -41.5t-41.5 -18.5zM321 919h253l-12 -55h-252z" />
    <glyph glyph-name="uni01D7" unicode="&#x1d7;" horiz-adv-x="630" 
d="M159 654h108l-73 -366q-9 -42 -9 -77q0 -63 27 -96.5t89 -33.5q52 0 89.5 42t57.5 141l78 390h106l-79 -390q-29 -146 -94 -211t-162 -65q-109 0 -164.5 54t-55.5 163q0 22 3.5 48t8.5 51zM476 958h116l-133 -114h-87zM321 708q-19 0 -31.5 12t-12.5 33q0 22 16.5 40.5
t41.5 18.5q19 0 31.5 -12t12.5 -32q0 -23 -16 -41.5t-42 -18.5zM497 708q-20 0 -32 12t-12 33q0 22 15.5 40.5t41.5 18.5q19 0 31.5 -12t12.5 -32q0 -23 -16 -41.5t-41 -18.5z" />
    <glyph glyph-name="uni01D9" unicode="&#x1d9;" horiz-adv-x="630" 
d="M159 654h108l-73 -366q-9 -42 -9 -77q0 -63 27 -96.5t89 -33.5q52 0 89.5 42t57.5 141l78 390h106l-79 -390q-29 -146 -94 -211t-162 -65q-109 0 -164.5 54t-55.5 163q0 22 3.5 48t8.5 51zM321 708q-19 0 -31.5 12t-12.5 33q0 22 16.5 40.5t41.5 18.5q19 0 31.5 -12
t12.5 -32q0 -23 -16 -41.5t-42 -18.5zM497 708q-20 0 -32 12t-12 33q0 22 15.5 40.5t41.5 18.5q19 0 31.5 -12t12.5 -32q0 -23 -16 -41.5t-41 -18.5zM310 958h84l44 -66h3l72 66h84l-114 -114h-103z" />
    <glyph glyph-name="uni01DB" unicode="&#x1db;" horiz-adv-x="630" 
d="M159 654h108l-73 -366q-9 -42 -9 -77q0 -63 27 -96.5t89 -33.5q52 0 89.5 42t57.5 141l78 390h106l-79 -390q-29 -146 -94 -211t-162 -65q-109 0 -164.5 54t-55.5 163q0 22 3.5 48t8.5 51zM316 958h114l63 -114h-87zM321 708q-19 0 -31.5 12t-12.5 33q0 22 16.5 40.5
t41.5 18.5q19 0 31.5 -12t12.5 -32q0 -23 -16 -41.5t-42 -18.5zM497 708q-20 0 -32 12t-12 33q0 22 15.5 40.5t41.5 18.5q19 0 31.5 -12t12.5 -32q0 -23 -16 -41.5t-41 -18.5z" />
    <glyph glyph-name="uni1EE4" unicode="&#x1ee4;" horiz-adv-x="630" 
d="M159 654h108l-73 -366q-9 -42 -9 -77q0 -63 27 -96.5t89 -33.5q52 0 89.5 42t57.5 141l78 390h106l-79 -390q-29 -146 -94 -211t-162 -65q-109 0 -164.5 54t-55.5 163q0 22 3.5 48t8.5 51zM239 -214q-23 0 -42 14.5t-19 41.5q0 29 21 49.5t51 20.5q23 0 42 -14.5
t19 -41.5q0 -30 -21 -50t-51 -20z" />
    <glyph glyph-name="uni1EE6" unicode="&#x1ee6;" horiz-adv-x="630" 
d="M159 654h108l-73 -366q-9 -42 -9 -77q0 -63 27 -96.5t89 -33.5q52 0 89.5 42t57.5 141l78 390h106l-79 -390q-29 -146 -94 -211t-162 -65q-109 0 -164.5 54t-55.5 163q0 22 3.5 48t8.5 51zM370 876q71 -3 100.5 -23.5t29.5 -49.5q0 -25 -10.5 -43.5t-29.5 -31.5
t-44 -21.5t-53 -12.5l-5 45q28 7 44 16.5t16 28.5q0 15 -14.5 24t-55.5 11z" />
    <glyph glyph-name="Uogonek" unicode="&#x172;" horiz-adv-x="630" 
d="M553 264q-12 -62 -29.5 -107t-42 -76.5t-56.5 -52t-72 -35.5q-55 -19 -79 -48.5t-24 -54.5q0 -17 10.5 -26t24.5 -9q15 0 31 10l22 -55q-19 -12 -44 -19t-46 -7q-38 0 -61.5 18.5t-23.5 53.5q0 20 8 39.5t20.5 37.5t27.5 33t30 26q-85 12 -128.5 65t-43.5 148
q0 22 3.5 48t8.5 51l70 350h108l-73 -366q-9 -42 -9 -77q0 -63 27 -96.5t89 -33.5q52 0 89.5 42t57.5 141l78 390h106z" />
    <glyph glyph-name="Uhorn" unicode="&#x1af;" horiz-adv-x="648" 
d="M746 788q7 -14 9.5 -27t2.5 -27q0 -44 -32 -78t-103 -47l-70 -345q-29 -146 -94 -211t-162 -65q-109 0 -164.5 54t-55.5 163q0 22 3.5 48t8.5 51l70 350h108l-73 -366q-9 -42 -9 -77q0 -63 27 -96.5t89 -33.5q52 0 89.5 42t57.5 141l78 390h57q39 3 64 23.5t25 48.5
q0 17 -7 35z" />
    <glyph glyph-name="uni1EE8" unicode="&#x1ee8;" horiz-adv-x="648" 
d="M746 788q7 -14 9.5 -27t2.5 -27q0 -44 -32 -78t-103 -47l-70 -345q-29 -146 -94 -211t-162 -65q-109 0 -164.5 54t-55.5 163q0 22 3.5 48t8.5 51l70 350h108l-73 -366q-9 -42 -9 -77q0 -63 27 -96.5t89 -33.5q52 0 89.5 42t57.5 141l78 390h57q39 3 64 23.5t25 48.5
q0 17 -7 35zM439 818h119l-133 -114h-90z" />
    <glyph glyph-name="uni1EEA" unicode="&#x1eea;" horiz-adv-x="648" 
d="M746 788q7 -14 9.5 -27t2.5 -27q0 -44 -32 -78t-103 -47l-70 -345q-29 -146 -94 -211t-162 -65q-109 0 -164.5 54t-55.5 163q0 22 3.5 48t8.5 51l70 350h108l-73 -366q-9 -42 -9 -77q0 -63 27 -96.5t89 -33.5q52 0 89.5 42t57.5 141l78 390h57q39 3 64 23.5t25 48.5
q0 17 -7 35zM281 818h110l63 -114h-83z" />
    <glyph glyph-name="uni1EEC" unicode="&#x1eec;" horiz-adv-x="648" 
d="M746 788q7 -14 9.5 -27t2.5 -27q0 -44 -32 -78t-103 -47l-70 -345q-29 -146 -94 -211t-162 -65q-109 0 -164.5 54t-55.5 163q0 22 3.5 48t8.5 51l70 350h108l-73 -366q-9 -42 -9 -77q0 -63 27 -96.5t89 -33.5q52 0 89.5 42t57.5 141l78 390h57q39 3 64 23.5t25 48.5
q0 17 -7 35zM367 876q71 -3 100.5 -23.5t29.5 -49.5q0 -25 -10.5 -43.5t-29.5 -31.5t-44 -21.5t-53 -12.5l-5 45q28 7 44 16.5t16 28.5q0 15 -14.5 24t-55.5 11z" />
    <glyph glyph-name="uni1EEE" unicode="&#x1eee;" horiz-adv-x="648" 
d="M746 788q7 -14 9.5 -27t2.5 -27q0 -44 -32 -78t-103 -47l-70 -345q-29 -146 -94 -211t-162 -65q-109 0 -164.5 54t-55.5 163q0 22 3.5 48t8.5 51l70 350h108l-73 -366q-9 -42 -9 -77q0 -63 27 -96.5t89 -33.5q52 0 89.5 42t57.5 141l78 390h57q39 3 64 23.5t25 48.5
q0 17 -7 35zM247 707q14 54 44.5 86t65.5 32q20 0 34 -8t25.5 -17.5t23 -17.5t26.5 -8q27 0 45 49h58q-14 -54 -44 -86t-65 -32q-21 0 -35 8t-25.5 17.5t-22.5 17.5t-26 8q-28 0 -46 -49h-58z" />
    <glyph glyph-name="uni1EF0" unicode="&#x1ef0;" horiz-adv-x="648" 
d="M746 788q7 -14 9.5 -27t2.5 -27q0 -44 -32 -78t-103 -47l-70 -345q-29 -146 -94 -211t-162 -65q-109 0 -164.5 54t-55.5 163q0 22 3.5 48t8.5 51l70 350h108l-73 -366q-9 -42 -9 -77q0 -63 27 -96.5t89 -33.5q52 0 89.5 42t57.5 141l78 390h57q39 3 64 23.5t25 48.5
q0 17 -7 35zM241 -214q-23 0 -42 14.5t-19 41.5q0 29 21 49.5t51 20.5q23 0 42 -14.5t19 -41.5q0 -30 -21 -50t-51 -20z" />
    <glyph glyph-name="Wgrave" unicode="&#x1e80;" horiz-adv-x="775" 
d="M102 654h110l-15 -336q-4 -53 -7 -105.5t-8 -106.5h4l45 107l44 105l149 336h93l6 -336q0 -106 -3 -212h4l39 107l39 105l126 336h104l-262 -654h-136l-2 356q0 34 2 74.5l4 78.5h-4l-29.5 -76.5l-31.5 -76.5l-153 -356h-134zM351 818h110l63 -114h-83z" />
    <glyph glyph-name="Wacute" unicode="&#x1e82;" horiz-adv-x="775" 
d="M102 654h110l-15 -336q-4 -53 -7 -105.5t-8 -106.5h4l45 107l44 105l149 336h93l6 -336q0 -106 -3 -212h4l39 107l39 105l126 336h104l-262 -654h-136l-2 356q0 34 2 74.5l4 78.5h-4l-29.5 -76.5l-31.5 -76.5l-153 -356h-134zM509 818h119l-133 -114h-90z" />
    <glyph glyph-name="Wcircumflex" unicode="&#x174;" horiz-adv-x="775" 
d="M102 654h110l-15 -336q-4 -53 -7 -105.5t-8 -106.5h4l45 107l44 105l149 336h93l6 -336q0 -106 -3 -212h4l39 107l39 105l126 336h104l-262 -654h-136l-2 356q0 34 2 74.5l4 78.5h-4l-29.5 -76.5l-31.5 -76.5l-153 -356h-134zM437 818h104l69 -114h-80l-46 66h-3l-70 -66
h-88z" />
    <glyph glyph-name="Wdieresis" unicode="&#x1e84;" horiz-adv-x="775" 
d="M102 654h110l-15 -336q-4 -53 -7 -105.5t-8 -106.5h4l45 107l44 105l149 336h93l6 -336q0 -106 -3 -212h4l39 107l39 105l126 336h104l-262 -654h-136l-2 356q0 34 2 74.5l4 78.5h-4l-29.5 -76.5l-31.5 -76.5l-153 -356h-134zM384 708q-21 0 -35 13t-14 36q0 25 18 45
t44 20q20 0 34.5 -13t14.5 -36q0 -24 -18 -44.5t-44 -20.5zM562 708q-21 0 -35 13t-14 36q0 25 18 45t44 20q20 0 34.5 -13t14.5 -36q0 -24 -18 -44.5t-44 -20.5z" />
    <glyph glyph-name="Ygrave" unicode="&#x1ef2;" horiz-adv-x="486" 
d="M187 246l-105 408h111l37 -172q8 -38 14 -72t14 -72h4l42 73l43 72l107 171h116l-275 -408l-49 -246h-108zM204 818h110l63 -114h-83z" />
    <glyph glyph-name="Yacute" unicode="&#xdd;" horiz-adv-x="486" 
d="M187 246l-105 408h111l37 -172q8 -38 14 -72t14 -72h4l42 73l43 72l107 171h116l-275 -408l-49 -246h-108zM362 818h119l-133 -114h-90z" />
    <glyph glyph-name="Ycircumflex" unicode="&#x176;" horiz-adv-x="486" 
d="M187 246l-105 408h111l37 -172q8 -38 14 -72t14 -72h4l42 73l43 72l107 171h116l-275 -408l-49 -246h-108zM290 818h104l69 -114h-80l-46 66h-3l-70 -66h-88z" />
    <glyph glyph-name="Ydieresis" unicode="&#x178;" horiz-adv-x="486" 
d="M187 246l-105 408h111l37 -172q8 -38 14 -72t14 -72h4l42 73l43 72l107 171h116l-275 -408l-49 -246h-108zM237 708q-21 0 -35 13t-14 36q0 25 18 45t44 20q20 0 34.5 -13t14.5 -36q0 -24 -18 -44.5t-44 -20.5zM415 708q-21 0 -35 13t-14 36q0 25 18 45t44 20
q20 0 34.5 -13t14.5 -36q0 -24 -18 -44.5t-44 -20.5z" />
    <glyph glyph-name="uni1E8E" unicode="&#x1e8e;" horiz-adv-x="486" 
d="M187 246l-105 408h111l37 -172q8 -38 14 -72t14 -72h4l42 73l43 72l107 171h116l-275 -408l-49 -246h-108zM328 709q-24 0 -43 14t-19 42q0 29 21.5 49.5t50.5 20.5q24 0 43 -15t19 -42q0 -30 -21 -49.5t-51 -19.5z" />
    <glyph glyph-name="uni1EF4" unicode="&#x1ef4;" horiz-adv-x="486" 
d="M187 246l-105 408h111l37 -172q8 -38 14 -72t14 -72h4l42 73l43 72l107 171h116l-275 -408l-49 -246h-108zM161 -222q-23 0 -42 14.5t-19 41.5q0 29 21 49.5t51 20.5q23 0 42 -14.5t19 -41.5q0 -30 -21 -50t-51 -20z" />
    <glyph glyph-name="uni1EF6" unicode="&#x1ef6;" horiz-adv-x="486" 
d="M187 246l-105 408h111l37 -172q8 -38 14 -72t14 -72h4l42 73l43 72l107 171h116l-275 -408l-49 -246h-108zM290 876q71 -3 100.5 -23.5t29.5 -49.5q0 -25 -10.5 -43.5t-29.5 -31.5t-44 -21.5t-53 -12.5l-5 45q28 7 44 16.5t16 28.5q0 15 -14.5 24t-55.5 11z" />
    <glyph glyph-name="uni1EF8" unicode="&#x1ef8;" horiz-adv-x="486" 
d="M187 246l-105 408h111l37 -172q8 -38 14 -72t14 -72h4l42 73l43 72l107 171h116l-275 -408l-49 -246h-108zM170 707q14 54 44.5 86t65.5 32q20 0 34 -8t25.5 -17.5t23 -17.5t26.5 -8q27 0 45 49h58q-14 -54 -44 -86t-65 -32q-21 0 -35 8t-25.5 17.5t-22.5 17.5t-26 8
q-28 0 -46 -49h-58z" />
    <glyph glyph-name="Zacute" unicode="&#x179;" horiz-adv-x="519" 
d="M11 65l390 498h-278l18 91h407l-13 -65l-387 -498h306l-19 -91h-438zM389 818h119l-133 -114h-90z" />
    <glyph glyph-name="Zcaron" unicode="&#x17d;" horiz-adv-x="519" 
d="M11 65l390 498h-278l18 91h407l-13 -65l-387 -498h306l-19 -91h-438zM399 704h-103l-70 114h80l46 -66h3l71 66h87z" />
    <glyph glyph-name="Zdotaccent" unicode="&#x17b;" horiz-adv-x="519" 
d="M11 65l390 498h-278l18 91h407l-13 -65l-387 -498h306l-19 -91h-438zM355 709q-24 0 -43 14t-19 42q0 29 21.5 49.5t50.5 20.5q24 0 43 -15t19 -42q0 -30 -21 -49.5t-51 -19.5z" />
    <glyph glyph-name="uni1E92" unicode="&#x1e92;" horiz-adv-x="519" 
d="M11 65l390 498h-278l18 91h407l-13 -65l-387 -498h306l-19 -91h-438zM179 -222q-23 0 -42 14.5t-19 41.5q0 29 21 49.5t51 20.5q23 0 42 -14.5t19 -41.5q0 -30 -21 -50t-51 -20z" />
    <glyph glyph-name="Eth" unicode="&#xd0;" horiz-adv-x="622" 
d="M238 87q55 0 100.5 20.5t78.5 59.5t51 95.5t18 128.5q0 88 -46 132t-130 44h-40l-39 -196h137l-12 -56h-136l-45 -228h63zM313 654q137 0 210 -65.5t73 -190.5q0 -93 -25.5 -167t-72 -125t-112 -78.5t-146.5 -27.5h-190l63 315h-71l11 52l71 4l56 283h133z" />
    <glyph glyph-name="Thorn" unicode="&#xde;" horiz-adv-x="579" 
d="M162 660h108l-21 -110h101q45 0 82.5 -9t64.5 -29t42 -51.5t15 -76.5q0 -65 -23 -111t-62.5 -75t-93.5 -43t-116 -14h-93l-28 -141h-106zM267 227q88 0 134 36t46 105q0 51 -31.5 73.5t-91.5 22.5h-93l-47 -237h83z" />
    <glyph glyph-name="uni018F" unicode="&#x18f;" horiz-adv-x="652" 
d="M167 279q-7 -47 0 -84t25 -62.5t45 -39t60 -13.5q35 0 67.5 14t59.5 40.5t48 63t33 81.5h-338zM190 592q38 35 90 57.5t117 22.5q57 0 100.5 -19t72 -54.5t43 -86t14.5 -112.5q0 -91 -27 -166.5t-73 -130t-107.5 -85t-130.5 -30.5q-53 0 -94.5 18t-70.5 51t-44.5 79.5
t-15.5 102.5q0 35 5 61.5t14 58.5h435q1 8 1 14.5v14.5q0 89 -30.5 140.5t-104.5 51.5q-46 0 -82 -18t-65 -43z" />
    <glyph glyph-name="agrave" unicode="&#xe0;" horiz-adv-x="544" 
d="M35 167q0 70 22 131.5t59 107t84.5 71.5t98.5 26q36 0 66 -18.5t47 -50.5h2l21 57h86l-98 -491h-88l5 68h-3q-35 -36 -77.5 -58t-84.5 -22q-65 0 -102.5 46t-37.5 133zM219 76q32 0 65.5 19t63.5 64l40 196q-17 32 -38.5 46t-44.5 14q-31 0 -60 -18.5t-51 -50.5
t-35 -74.5t-13 -89.5q0 -54 19.5 -80t53.5 -26zM236 717h102l57 -145h-75z" />
    <glyph glyph-name="aacute" unicode="&#xe1;" horiz-adv-x="544" 
d="M35 167q0 70 22 131.5t59 107t84.5 71.5t98.5 26q36 0 66 -18.5t47 -50.5h2l21 57h86l-98 -491h-88l5 68h-3q-35 -36 -77.5 -58t-84.5 -22q-65 0 -102.5 46t-37.5 133zM219 76q32 0 65.5 19t63.5 64l40 196q-17 32 -38.5 46t-44.5 14q-31 0 -60 -18.5t-51 -50.5
t-35 -74.5t-13 -89.5q0 -54 19.5 -80t53.5 -26zM370 717h110l-142 -145h-84z" />
    <glyph glyph-name="acircumflex" unicode="&#xe2;" horiz-adv-x="544" 
d="M35 167q0 70 22 131.5t59 107t84.5 71.5t98.5 26q36 0 66 -18.5t47 -50.5h2l21 57h86l-98 -491h-88l5 68h-3q-35 -36 -77.5 -58t-84.5 -22q-65 0 -102.5 46t-37.5 133zM219 76q32 0 65.5 19t63.5 64l40 196q-17 32 -38.5 46t-44.5 14q-31 0 -60 -18.5t-51 -50.5
t-35 -74.5t-13 -89.5q0 -54 19.5 -80t53.5 -26zM316 717h83l64 -145h-71l-41 86h-4l-76 -86h-77z" />
    <glyph glyph-name="atilde" unicode="&#xe3;" horiz-adv-x="544" 
d="M35 167q0 70 22 131.5t59 107t84.5 71.5t98.5 26q36 0 66 -18.5t47 -50.5h2l21 57h86l-98 -491h-88l5 68h-3q-35 -36 -77.5 -58t-84.5 -22q-65 0 -102.5 46t-37.5 133zM219 76q32 0 65.5 19t63.5 64l40 196q-17 32 -38.5 46t-44.5 14q-31 0 -60 -18.5t-51 -50.5
t-35 -74.5t-13 -89.5q0 -54 19.5 -80t53.5 -26zM186 578q16 55 44.5 85.5t61.5 30.5q22 0 36.5 -7.5t26 -17t22.5 -17t27 -7.5q22 0 42 47h58q-15 -54 -43.5 -85t-62.5 -31q-22 0 -36.5 8t-26 17l-22.5 17t-27 8q-22 0 -42 -48h-58z" />
    <glyph glyph-name="adieresis" unicode="&#xe4;" horiz-adv-x="544" 
d="M35 167q0 70 22 131.5t59 107t84.5 71.5t98.5 26q36 0 66 -18.5t47 -50.5h2l21 57h86l-98 -491h-88l5 68h-3q-35 -36 -77.5 -58t-84.5 -22q-65 0 -102.5 46t-37.5 133zM219 76q32 0 65.5 19t63.5 64l40 196q-17 32 -38.5 46t-44.5 14q-31 0 -60 -18.5t-51 -50.5
t-35 -74.5t-13 -89.5q0 -54 19.5 -80t53.5 -26zM246 580q-22 0 -36 13t-14 37q0 26 18.5 45.5t44.5 19.5q21 0 35.5 -13.5t14.5 -37.5q0 -27 -18.5 -45.5t-44.5 -18.5zM424 580q-22 0 -36 13t-14 37q0 26 18.5 45.5t44.5 19.5q22 0 36 -13.5t14 -37.5q0 -27 -18.5 -45.5
t-44.5 -18.5z" />
    <glyph glyph-name="amacron" unicode="&#x101;" horiz-adv-x="544" 
d="M35 167q0 70 22 131.5t59 107t84.5 71.5t98.5 26q36 0 66 -18.5t47 -50.5h2l21 57h86l-98 -491h-88l5 68h-3q-35 -36 -77.5 -58t-84.5 -22q-65 0 -102.5 46t-37.5 133zM219 76q32 0 65.5 19t63.5 64l40 196q-17 32 -38.5 46t-44.5 14q-31 0 -60 -18.5t-51 -50.5
t-35 -74.5t-13 -89.5q0 -54 19.5 -80t53.5 -26zM222 668h249l-13 -71h-250z" />
    <glyph glyph-name="abreve" unicode="&#x103;" horiz-adv-x="544" 
d="M35 167q0 70 22 131.5t59 107t84.5 71.5t98.5 26q36 0 66 -18.5t47 -50.5h2l21 57h86l-98 -491h-88l5 68h-3q-35 -36 -77.5 -58t-84.5 -22q-65 0 -102.5 46t-37.5 133zM219 76q32 0 65.5 19t63.5 64l40 196q-17 32 -38.5 46t-44.5 14q-31 0 -60 -18.5t-51 -50.5
t-35 -74.5t-13 -89.5q0 -54 19.5 -80t53.5 -26zM329 575q-31 0 -52 11t-33 29.5t-15.5 42t1.5 48.5h59q-3 -31 8.5 -51t41.5 -20q31 0 51 20.5t30 50.5h62q-7 -25 -19.5 -48.5t-31.5 -42t-44.5 -29.5t-57.5 -11z" />
    <glyph glyph-name="aring" unicode="&#xe5;" horiz-adv-x="544" 
d="M35 167q0 70 22 131.5t59 107t84.5 71.5t98.5 26q36 0 66 -18.5t47 -50.5h2l21 57h86l-98 -491h-88l5 68h-3q-35 -36 -77.5 -58t-84.5 -22q-65 0 -102.5 46t-37.5 133zM219 76q32 0 65.5 19t63.5 64l40 196q-17 32 -38.5 46t-44.5 14q-31 0 -60 -18.5t-51 -50.5
t-35 -74.5t-13 -89.5q0 -54 19.5 -80t53.5 -26zM336 543q-40 0 -66 22t-26 64q0 22 8 42t22.5 34t33.5 22.5t42 8.5q40 0 65.5 -22t25.5 -63q0 -23 -8 -42.5t-22.5 -34t-33.5 -23t-41 -8.5zM348 691q-20 0 -34 -17.5t-14 -41.5q0 -19 9.5 -31.5t28.5 -12.5q20 0 34 17.5
t14 41.5q0 19 -9.5 31.5t-28.5 12.5z" />
    <glyph glyph-name="uni01CE" unicode="&#x1ce;" horiz-adv-x="544" 
d="M35 167q0 70 22 131.5t59 107t84.5 71.5t98.5 26q36 0 66 -18.5t47 -50.5h2l21 57h86l-98 -491h-88l5 68h-3q-35 -36 -77.5 -58t-84.5 -22q-65 0 -102.5 46t-37.5 133zM219 76q32 0 65.5 19t63.5 64l40 196q-17 32 -38.5 46t-44.5 14q-31 0 -60 -18.5t-51 -50.5
t-35 -74.5t-13 -89.5q0 -54 19.5 -80t53.5 -26zM372 572h-83l-65 145h71l42 -85h4l75 85h78z" />
    <glyph glyph-name="uni1EA1" unicode="&#x1ea1;" horiz-adv-x="544" 
d="M35 167q0 70 22 131.5t59 107t84.5 71.5t98.5 26q36 0 66 -18.5t47 -50.5h2l21 57h86l-98 -491h-88l5 68h-3q-35 -36 -77.5 -58t-84.5 -22q-65 0 -102.5 46t-37.5 133zM219 76q32 0 65.5 19t63.5 64l40 196q-17 32 -38.5 46t-44.5 14q-31 0 -60 -18.5t-51 -50.5
t-35 -74.5t-13 -89.5q0 -54 19.5 -80t53.5 -26zM205 -214q-23 0 -42 14.5t-19 41.5q0 29 21 49.5t51 20.5q23 0 42 -14.5t19 -41.5q0 -30 -21 -50t-51 -20z" />
    <glyph glyph-name="uni1EA3" unicode="&#x1ea3;" horiz-adv-x="544" 
d="M35 167q0 70 22 131.5t59 107t84.5 71.5t98.5 26q36 0 66 -18.5t47 -50.5h2l21 57h86l-98 -491h-88l5 68h-3q-35 -36 -77.5 -58t-84.5 -22q-65 0 -102.5 46t-37.5 133zM219 76q32 0 65.5 19t63.5 64l40 196q-17 32 -38.5 46t-44.5 14q-31 0 -60 -18.5t-51 -50.5
t-35 -74.5t-13 -89.5q0 -54 19.5 -80t53.5 -26zM313 736q73 -2 102.5 -22t29.5 -51q0 -25 -10.5 -43.5t-29 -31.5t-43.5 -21.5t-53 -12.5l-6 46q28 8 44.5 17t16.5 28q0 15 -15.5 23.5t-56.5 11.5z" />
    <glyph glyph-name="uni1EA5" unicode="&#x1ea5;" horiz-adv-x="544" 
d="M35 167q0 70 22 131.5t59 107t84.5 71.5t98.5 26q36 0 66 -18.5t47 -50.5h2l21 57h86l-98 -491h-88l5 68h-3q-35 -36 -77.5 -58t-84.5 -22q-65 0 -102.5 46t-37.5 133zM219 76q32 0 65.5 19t63.5 64l40 196q-17 32 -38.5 46t-44.5 14q-31 0 -60 -18.5t-51 -50.5
t-35 -74.5t-13 -89.5q0 -54 19.5 -80t53.5 -26zM311 695h82l54 -123h-64l-38 69h-4l-63 -69h-72zM527 757h84l-110 -116h-63z" />
    <glyph glyph-name="uni1EA7" unicode="&#x1ea7;" horiz-adv-x="544" 
d="M35 167q0 70 22 131.5t59 107t84.5 71.5t98.5 26q36 0 66 -18.5t47 -50.5h2l21 57h86l-98 -491h-88l5 68h-3q-35 -36 -77.5 -58t-84.5 -22q-65 0 -102.5 46t-37.5 133zM219 76q32 0 65.5 19t63.5 64l40 196q-17 32 -38.5 46t-44.5 14q-31 0 -60 -18.5t-51 -50.5
t-35 -74.5t-13 -89.5q0 -54 19.5 -80t53.5 -26zM554 641h-63l-64 116h82zM311 695h82l54 -123h-64l-38 69h-4l-63 -69h-72z" />
    <glyph glyph-name="uni1EA9" unicode="&#x1ea9;" horiz-adv-x="544" 
d="M35 167q0 70 22 131.5t59 107t84.5 71.5t98.5 26q36 0 66 -18.5t47 -50.5h2l21 57h86l-98 -491h-88l5 68h-3q-35 -36 -77.5 -58t-84.5 -22q-65 0 -102.5 46t-37.5 133zM219 76q32 0 65.5 19t63.5 64l40 196q-17 32 -38.5 46t-44.5 14q-31 0 -60 -18.5t-51 -50.5
t-35 -74.5t-13 -89.5q0 -54 19.5 -80t53.5 -26zM463 792q63 -3 89.5 -20.5t26.5 -44.5q0 -24 -9 -41t-25 -28.5t-38 -18.5t-47 -12l-3 39q25 8 36 17.5t11 26.5q0 14 -12.5 22t-46.5 12zM311 695h82l54 -123h-64l-38 69h-4l-63 -69h-72z" />
    <glyph glyph-name="uni1EAB" unicode="&#x1eab;" horiz-adv-x="544" 
d="M35 167q0 70 22 131.5t59 107t84.5 71.5t98.5 26q36 0 66 -18.5t47 -50.5h2l21 57h86l-98 -491h-88l5 68h-3q-35 -36 -77.5 -58t-84.5 -22q-65 0 -102.5 46t-37.5 133zM219 76q32 0 65.5 19t63.5 64l40 196q-17 32 -38.5 46t-44.5 14q-31 0 -60 -18.5t-51 -50.5
t-35 -74.5t-13 -89.5q0 -54 19.5 -80t53.5 -26zM457 572h-68l-46 60h-4l-65 -60h-77l103 105h97zM223 714q15 48 41 74t55 26q18 0 30.5 -6.5t23 -14.5t20 -14.5t21.5 -6.5q11 0 23 10.5t19 30.5h50q-15 -48 -41.5 -74t-55.5 -26q-18 0 -30.5 6.5t-22.5 14.5t-19.5 14.5
t-21.5 6.5q-11 0 -22.5 -10.5t-18.5 -30.5h-51z" />
    <glyph glyph-name="uni1EAD" unicode="&#x1ead;" horiz-adv-x="544" 
d="M35 167q0 70 22 131.5t59 107t84.5 71.5t98.5 26q36 0 66 -18.5t47 -50.5h2l21 57h86l-98 -491h-88l5 68h-3q-35 -36 -77.5 -58t-84.5 -22q-65 0 -102.5 46t-37.5 133zM219 76q32 0 65.5 19t63.5 64l40 196q-17 32 -38.5 46t-44.5 14q-31 0 -60 -18.5t-51 -50.5
t-35 -74.5t-13 -89.5q0 -54 19.5 -80t53.5 -26zM316 717h83l64 -145h-71l-41 86h-4l-76 -86h-77zM205 -214q-23 0 -42 14.5t-19 41.5q0 29 21 49.5t51 20.5q23 0 42 -14.5t19 -41.5q0 -30 -21 -50t-51 -20z" />
    <glyph glyph-name="uni1EAF" unicode="&#x1eaf;" horiz-adv-x="544" 
d="M35 167q0 70 22 131.5t59 107t84.5 71.5t98.5 26q36 0 66 -18.5t47 -50.5h2l21 57h86l-98 -491h-88l5 68h-3q-35 -36 -77.5 -58t-84.5 -22q-65 0 -102.5 46t-37.5 133zM219 76q32 0 65.5 19t63.5 64l40 196q-17 32 -38.5 46t-44.5 14q-31 0 -60 -18.5t-51 -50.5
t-35 -74.5t-13 -89.5q0 -54 19.5 -80t53.5 -26zM387 797h82l-103 -115h-58zM328 575q-31 0 -52 11t-33 29.5t-15 42t1 48.5h50q-4 -34 10.5 -54.5t49.5 -20.5q32 0 55.5 21t34.5 54h53q-7 -25 -19.5 -48.5t-32 -42t-45 -29.5t-57.5 -11z" />
    <glyph glyph-name="uni1EB1" unicode="&#x1eb1;" horiz-adv-x="544" 
d="M35 167q0 70 22 131.5t59 107t84.5 71.5t98.5 26q36 0 66 -18.5t47 -50.5h2l21 57h86l-98 -491h-88l5 68h-3q-35 -36 -77.5 -58t-84.5 -22q-65 0 -102.5 46t-37.5 133zM219 76q32 0 65.5 19t63.5 64l40 196q-17 32 -38.5 46t-44.5 14q-31 0 -60 -18.5t-51 -50.5
t-35 -74.5t-13 -89.5q0 -54 19.5 -80t53.5 -26zM328 575q-31 0 -52 11t-33 29.5t-15 42t1 48.5h50q-4 -34 10.5 -54.5t49.5 -20.5q32 0 55.5 21t34.5 54h53q-7 -25 -19.5 -48.5t-32 -42t-45 -29.5t-57.5 -11zM390 682h-56l-57 115h79z" />
    <glyph glyph-name="uni1EB3" unicode="&#x1eb3;" horiz-adv-x="544" 
d="M35 167q0 70 22 131.5t59 107t84.5 71.5t98.5 26q36 0 66 -18.5t47 -50.5h2l21 57h86l-98 -491h-88l5 68h-3q-35 -36 -77.5 -58t-84.5 -22q-65 0 -102.5 46t-37.5 133zM219 76q32 0 65.5 19t63.5 64l40 196q-17 32 -38.5 46t-44.5 14q-31 0 -60 -18.5t-51 -50.5
t-35 -74.5t-13 -89.5q0 -54 19.5 -80t53.5 -26zM329 854q62 -2 87 -19.5t25 -43.5q0 -48 -31.5 -69t-82.5 -32l-3 41q23 7 33.5 16t10.5 26q0 14 -11.5 21t-45.5 11zM328 575q-31 0 -52 11t-33 29.5t-15 42t1 48.5h50q-4 -34 10.5 -54.5t49.5 -20.5q32 0 55.5 21t34.5 54h53
q-7 -25 -19.5 -48.5t-32 -42t-45 -29.5t-57.5 -11z" />
    <glyph glyph-name="uni1EB5" unicode="&#x1eb5;" horiz-adv-x="544" 
d="M35 167q0 70 22 131.5t59 107t84.5 71.5t98.5 26q36 0 66 -18.5t47 -50.5h2l21 57h86l-98 -491h-88l5 68h-3q-35 -36 -77.5 -58t-84.5 -22q-65 0 -102.5 46t-37.5 133zM219 76q32 0 65.5 19t63.5 64l40 196q-17 32 -38.5 46t-44.5 14q-31 0 -60 -18.5t-51 -50.5
t-35 -74.5t-13 -89.5q0 -54 19.5 -80t53.5 -26zM327 575q-32 0 -52.5 9.5t-32.5 25.5t-15.5 36t-0.5 41h49q1 -24 15.5 -41t47.5 -17q32 0 55 17.5t33 40.5h51q-6 -21 -18.5 -41t-31 -36t-44 -25.5t-56.5 -9.5zM223 714q15 48 41 74t55 26q18 0 30.5 -6.5t23 -14.5t20 -14.5
t21.5 -6.5q11 0 23 10.5t19 30.5h50q-15 -48 -41.5 -74t-55.5 -26q-18 0 -30.5 6.5t-22.5 14.5t-19.5 14.5t-21.5 6.5q-11 0 -22.5 -10.5t-18.5 -30.5h-51z" />
    <glyph glyph-name="uni1EB7" unicode="&#x1eb7;" horiz-adv-x="544" 
d="M35 167q0 70 22 131.5t59 107t84.5 71.5t98.5 26q36 0 66 -18.5t47 -50.5h2l21 57h86l-98 -491h-88l5 68h-3q-35 -36 -77.5 -58t-84.5 -22q-65 0 -102.5 46t-37.5 133zM219 76q32 0 65.5 19t63.5 64l40 196q-17 32 -38.5 46t-44.5 14q-31 0 -60 -18.5t-51 -50.5
t-35 -74.5t-13 -89.5q0 -54 19.5 -80t53.5 -26zM329 575q-31 0 -52 11t-33 29.5t-15.5 42t1.5 48.5h59q-3 -31 8.5 -51t41.5 -20q31 0 51 20.5t30 50.5h62q-7 -25 -19.5 -48.5t-31.5 -42t-44.5 -29.5t-57.5 -11zM205 -214q-23 0 -42 14.5t-19 41.5q0 29 21 49.5t51 20.5
q23 0 42 -14.5t19 -41.5q0 -30 -21 -50t-51 -20z" />
    <glyph glyph-name="aogonek" unicode="&#x105;" horiz-adv-x="544" 
d="M35 167q0 70 22 131.5t59 107t84.5 71.5t98.5 26q36 0 66.5 -19t46.5 -51h2l21 58h86l-98 -491q-51 -20 -79.5 -48t-28.5 -60q0 -16 10.5 -24.5t24.5 -8.5q18 0 35 11l20 -48q-19 -13 -44 -21.5t-46 -8.5q-35 0 -58 17.5t-23 52.5q0 23 10 44.5t25 40t33 33t34 24.5l4 65
h-2q-35 -36 -78 -58.5t-85 -22.5q-65 0 -102.5 46t-37.5 133zM219 76q29 0 64 19t65 64l40 197q-17 32 -38.5 45.5t-44.5 13.5q-31 0 -60 -18.5t-51 -50.5t-35 -74.5t-13 -89.5q0 -54 19.5 -80t53.5 -26z" />
    <glyph glyph-name="ae" unicode="&#xe6;" horiz-adv-x="758" 
d="M27 109q0 53 23.5 89.5t65 60t98.5 34.5t124 13q3 19 3 32q0 80 -75 80q-30 0 -63.5 -11t-68.5 -29l-26 75q42 22 88.5 36t93.5 14q48 0 79.5 -19.5t43.5 -61.5q33 38 74 59.5t83 21.5q43 0 72.5 -14t48 -38.5t27 -57.5t8.5 -71q0 -32 -8 -62t-13 -42h-287
q-9 -69 22.5 -108.5t87.5 -39.5q26 0 52.5 12t47.5 27l39 -69q-29 -21 -69.5 -36.5t-91.5 -15.5q-53 0 -94.5 25.5t-61.5 62.5q-46 -42 -93 -65t-101 -23t-91.5 32t-37.5 89zM632 286l3.5 21.5t1.5 21.5q0 36 -17.5 63.5t-62.5 27.5q-38 0 -75.5 -35.5t-54.5 -98.5h205z
M324 238q-94 -2 -143 -30t-49 -77q0 -29 18.5 -44t47.5 -15q26 0 59 17.5t67 54.5q-4 25 -4 46t4 48z" />
    <glyph glyph-name="ccedilla" unicode="&#xe7;" horiz-adv-x="439" 
d="M33 188q0 66 22.5 123.5t61 100t90 67t108.5 24.5q45 0 77 -18t52 -42l-60 -65q-17 20 -34 29t-42 9q-33 0 -63 -18t-52.5 -48.5t-36 -71t-13.5 -86.5q0 -56 24.5 -86.5t74.5 -30.5q29 0 51.5 11.5t41.5 26.5l46 -68q-28 -20 -66.5 -38.5t-94.5 -18.5q-41 0 -75 13.5
t-59 39t-39 62.5t-14 85zM176 3h66l-34 -52q19 -7 32 -21t13 -37q0 -27 -14 -46.5t-37.5 -32.5t-54.5 -20.5t-64 -9.5l-4 45q39 5 65.5 18t26.5 37q0 14 -10.5 23.5t-38.5 17.5z" />
    <glyph glyph-name="cacute" unicode="&#x107;" horiz-adv-x="439" 
d="M33 188q0 66 22.5 123.5t61 100t90 67t108.5 24.5q45 0 77 -18t52 -42l-60 -65q-17 20 -34 29t-42 9q-33 0 -63 -18t-52.5 -48.5t-36 -71t-13.5 -86.5q0 -56 24.5 -86.5t74.5 -30.5q29 0 51.5 11.5t41.5 26.5l46 -68q-28 -20 -66.5 -38.5t-94.5 -18.5q-41 0 -75 13.5
t-59 39t-39 62.5t-14 85zM359 717h110l-142 -145h-84z" />
    <glyph glyph-name="ccircumflex" unicode="&#x109;" horiz-adv-x="439" 
d="M33 188q0 66 22.5 123.5t61 100t90 67t108.5 24.5q45 0 77 -18t52 -42l-60 -65q-17 20 -34 29t-42 9q-33 0 -63 -18t-52.5 -48.5t-36 -71t-13.5 -86.5q0 -56 24.5 -86.5t74.5 -30.5q29 0 51.5 11.5t41.5 26.5l46 -68q-28 -20 -66.5 -38.5t-94.5 -18.5q-41 0 -75 13.5
t-59 39t-39 62.5t-14 85zM305 717h83l64 -145h-71l-41 86h-4l-76 -86h-77z" />
    <glyph glyph-name="ccaron" unicode="&#x10d;" horiz-adv-x="439" 
d="M33 188q0 66 22.5 123.5t61 100t90 67t108.5 24.5q45 0 77 -18t52 -42l-60 -65q-17 20 -34 29t-42 9q-33 0 -63 -18t-52.5 -48.5t-36 -71t-13.5 -86.5q0 -56 24.5 -86.5t74.5 -30.5q29 0 51.5 11.5t41.5 26.5l46 -68q-28 -20 -66.5 -38.5t-94.5 -18.5q-41 0 -75 13.5
t-59 39t-39 62.5t-14 85zM361 572h-83l-65 145h71l42 -85h4l75 85h78z" />
    <glyph glyph-name="cdotaccent" unicode="&#x10b;" horiz-adv-x="439" 
d="M33 188q0 66 22.5 123.5t61 100t90 67t108.5 24.5q45 0 77 -18t52 -42l-60 -65q-17 20 -34 29t-42 9q-33 0 -63 -18t-52.5 -48.5t-36 -71t-13.5 -86.5q0 -56 24.5 -86.5t74.5 -30.5q29 0 51.5 11.5t41.5 26.5l46 -68q-28 -20 -66.5 -38.5t-94.5 -18.5q-41 0 -75 13.5
t-59 39t-39 62.5t-14 85zM325 578q-24 0 -43 14.5t-19 41.5q0 29 21.5 49.5t50.5 20.5q24 0 43 -14.5t19 -41.5q0 -30 -21 -50t-51 -20z" />
    <glyph glyph-name="dcaron" unicode="&#x10f;" horiz-adv-x="556" 
d="M424 532l34 174h107l-142 -706h-88l5 68h-3q-35 -36 -77.5 -58t-84.5 -22q-65 0 -102.5 46t-37.5 133q0 70 22 131.5t59 107t84.5 71.5t98.5 26q36 0 64 -18t44 -47h3zM219 76q32 0 65 19t64 64l40 196q-17 32 -38.5 46t-44.5 14q-31 0 -60 -18.5t-51 -50.5t-35 -74.5
t-13 -89.5q0 -54 19.5 -80t53.5 -26zM577 548l40 217h71l-13 -63l-49 -154h-49z" />
    <glyph glyph-name="uni1E0D" unicode="&#x1e0d;" horiz-adv-x="540" 
d="M424 532l34 174h107l-142 -706h-88l5 68h-3q-35 -36 -77.5 -58t-84.5 -22q-65 0 -102.5 46t-37.5 133q0 70 22 131.5t59 107t84.5 71.5t98.5 26q36 0 64 -18t44 -47h3zM219 76q32 0 65 19t64 64l40 196q-17 32 -38.5 46t-44.5 14q-31 0 -60 -18.5t-51 -50.5t-35 -74.5
t-13 -89.5q0 -54 19.5 -80t53.5 -26zM200 -214q-23 0 -42 14.5t-19 41.5q0 29 21 49.5t51 20.5q23 0 42 -14.5t19 -41.5q0 -30 -21 -50t-51 -20z" />
    <glyph glyph-name="uni1E0F" unicode="&#x1e0f;" horiz-adv-x="540" 
d="M424 532l34 174h107l-142 -706h-88l5 68h-3q-35 -36 -77.5 -58t-84.5 -22q-65 0 -102.5 46t-37.5 133q0 70 22 131.5t59 107t84.5 71.5t98.5 26q36 0 64 -18t44 -47h3zM219 76q32 0 65 19t64 64l40 196q-17 32 -38.5 46t-44.5 14q-31 0 -60 -18.5t-51 -50.5t-35 -74.5
t-13 -89.5q0 -54 19.5 -80t53.5 -26zM90 -100h249l-13 -71h-250z" />
    <glyph glyph-name="dcroat" unicode="&#x111;" horiz-adv-x="542" 
d="M384 335q-15 32 -36 46t-44 14q-31 0 -59.5 -18.5t-50.5 -48.5t-35 -68t-13 -78q0 -54 19.5 -80t53.5 -26q32 0 65 19t64 64zM605 570l-68 -5l-114 -565h-88l5 68h-3q-35 -36 -77.5 -58t-84.5 -22q-65 0 -102.5 46t-37.5 133q0 63 22 120t58.5 100.5t84 69.5t98.5 26
q36 0 63.5 -18t41.5 -47h3l14 94l10 53h-149l11 56h149l17 85h107l-17 -85h69z" />
    <glyph glyph-name="egrave" unicode="&#xe8;" horiz-adv-x="488" 
d="M33 196q0 69 23.5 125.5t62 97t86.5 62.5t96 22q43 0 72.5 -14t48 -38.5t27 -57.5t8.5 -71q0 -32 -8 -62t-13 -42h-299q-4 -39 4 -67t24.5 -46t40.5 -26.5t52 -8.5q26 0 53 12t47 27l40 -69q-30 -21 -72.5 -36.5t-95.5 -15.5q-44 0 -80 14t-62 40.5t-40.5 65t-14.5 88.5z
M363 286q2 10 3.5 20.5t1.5 22.5q0 36 -17.5 63.5t-62.5 27.5t-84.5 -35.5t-57.5 -98.5h217zM223 717h102l57 -145h-75z" />
    <glyph glyph-name="eacute" unicode="&#xe9;" horiz-adv-x="488" 
d="M33 196q0 69 23.5 125.5t62 97t86.5 62.5t96 22q43 0 72.5 -14t48 -38.5t27 -57.5t8.5 -71q0 -32 -8 -62t-13 -42h-299q-4 -39 4 -67t24.5 -46t40.5 -26.5t52 -8.5q26 0 53 12t47 27l40 -69q-30 -21 -72.5 -36.5t-95.5 -15.5q-44 0 -80 14t-62 40.5t-40.5 65t-14.5 88.5z
M363 286q2 10 3.5 20.5t1.5 22.5q0 36 -17.5 63.5t-62.5 27.5t-84.5 -35.5t-57.5 -98.5h217zM357 717h110l-142 -145h-84z" />
    <glyph glyph-name="ecircumflex" unicode="&#xea;" horiz-adv-x="488" 
d="M33 196q0 69 23.5 125.5t62 97t86.5 62.5t96 22q43 0 72.5 -14t48 -38.5t27 -57.5t8.5 -71q0 -32 -8 -62t-13 -42h-299q-4 -39 4 -67t24.5 -46t40.5 -26.5t52 -8.5q26 0 53 12t47 27l40 -69q-30 -21 -72.5 -36.5t-95.5 -15.5q-44 0 -80 14t-62 40.5t-40.5 65t-14.5 88.5z
M363 286q2 10 3.5 20.5t1.5 22.5q0 36 -17.5 63.5t-62.5 27.5t-84.5 -35.5t-57.5 -98.5h217zM303 717h83l64 -145h-71l-41 86h-4l-76 -86h-77z" />
    <glyph glyph-name="ecaron" unicode="&#x11b;" horiz-adv-x="488" 
d="M33 196q0 69 23.5 125.5t62 97t86.5 62.5t96 22q43 0 72.5 -14t48 -38.5t27 -57.5t8.5 -71q0 -32 -8 -62t-13 -42h-299q-4 -39 4 -67t24.5 -46t40.5 -26.5t52 -8.5q26 0 53 12t47 27l40 -69q-30 -21 -72.5 -36.5t-95.5 -15.5q-44 0 -80 14t-62 40.5t-40.5 65t-14.5 88.5z
M363 286q2 10 3.5 20.5t1.5 22.5q0 36 -17.5 63.5t-62.5 27.5t-84.5 -35.5t-57.5 -98.5h217zM359 572h-83l-65 145h71l42 -85h4l75 85h78z" />
    <glyph glyph-name="edieresis" unicode="&#xeb;" horiz-adv-x="488" 
d="M33 196q0 69 23.5 125.5t62 97t86.5 62.5t96 22q43 0 72.5 -14t48 -38.5t27 -57.5t8.5 -71q0 -32 -8 -62t-13 -42h-299q-4 -39 4 -67t24.5 -46t40.5 -26.5t52 -8.5q26 0 53 12t47 27l40 -69q-30 -21 -72.5 -36.5t-95.5 -15.5q-44 0 -80 14t-62 40.5t-40.5 65t-14.5 88.5z
M363 286q2 10 3.5 20.5t1.5 22.5q0 36 -17.5 63.5t-62.5 27.5t-84.5 -35.5t-57.5 -98.5h217zM233 580q-22 0 -36 13t-14 37q0 26 18.5 45.5t44.5 19.5q21 0 35.5 -13.5t14.5 -37.5q0 -27 -18.5 -45.5t-44.5 -18.5zM411 580q-22 0 -36 13t-14 37q0 26 18.5 45.5t44.5 19.5
q22 0 36 -13.5t14 -37.5q0 -27 -18.5 -45.5t-44.5 -18.5z" />
    <glyph glyph-name="emacron" unicode="&#x113;" horiz-adv-x="488" 
d="M33 196q0 69 23.5 125.5t62 97t86.5 62.5t96 22q43 0 72.5 -14t48 -38.5t27 -57.5t8.5 -71q0 -32 -8 -62t-13 -42h-299q-4 -39 4 -67t24.5 -46t40.5 -26.5t52 -8.5q26 0 53 12t47 27l40 -69q-30 -21 -72.5 -36.5t-95.5 -15.5q-44 0 -80 14t-62 40.5t-40.5 65t-14.5 88.5z
M363 286q2 10 3.5 20.5t1.5 22.5q0 36 -17.5 63.5t-62.5 27.5t-84.5 -35.5t-57.5 -98.5h217zM209 668h249l-13 -71h-250z" />
    <glyph glyph-name="ebreve" unicode="&#x115;" horiz-adv-x="488" 
d="M33 196q0 69 23.5 125.5t62 97t86.5 62.5t96 22q43 0 72.5 -14t48 -38.5t27 -57.5t8.5 -71q0 -32 -8 -62t-13 -42h-299q-4 -39 4 -67t24.5 -46t40.5 -26.5t52 -8.5q26 0 53 12t47 27l40 -69q-30 -21 -72.5 -36.5t-95.5 -15.5q-44 0 -80 14t-62 40.5t-40.5 65t-14.5 88.5z
M363 286q2 10 3.5 20.5t1.5 22.5q0 36 -17.5 63.5t-62.5 27.5t-84.5 -35.5t-57.5 -98.5h217zM316 575q-31 0 -52 11t-33 29.5t-15.5 42t1.5 48.5h59q-3 -31 8.5 -51t41.5 -20q31 0 51 20.5t30 50.5h62q-7 -25 -19.5 -48.5t-31.5 -42t-44.5 -29.5t-57.5 -11z" />
    <glyph glyph-name="edotaccent" unicode="&#x117;" horiz-adv-x="488" 
d="M33 196q0 69 23.5 125.5t62 97t86.5 62.5t96 22q43 0 72.5 -14t48 -38.5t27 -57.5t8.5 -71q0 -32 -8 -62t-13 -42h-299q-4 -39 4 -67t24.5 -46t40.5 -26.5t52 -8.5q26 0 53 12t47 27l40 -69q-30 -21 -72.5 -36.5t-95.5 -15.5q-44 0 -80 14t-62 40.5t-40.5 65t-14.5 88.5z
M363 286q2 10 3.5 20.5t1.5 22.5q0 36 -17.5 63.5t-62.5 27.5t-84.5 -35.5t-57.5 -98.5h217zM323 578q-24 0 -43 14.5t-19 41.5q0 29 21.5 49.5t50.5 20.5q24 0 43 -14.5t19 -41.5q0 -30 -21 -50t-51 -20z" />
    <glyph glyph-name="uni1EB9" unicode="&#x1eb9;" horiz-adv-x="488" 
d="M33 196q0 69 23.5 125.5t62 97t86.5 62.5t96 22q43 0 72.5 -14t48 -38.5t27 -57.5t8.5 -71q0 -32 -8 -62t-13 -42h-299q-4 -39 4 -67t24.5 -46t40.5 -26.5t52 -8.5q26 0 53 12t47 27l40 -69q-30 -21 -72.5 -36.5t-95.5 -15.5q-44 0 -80 14t-62 40.5t-40.5 65t-14.5 88.5z
M363 286q2 10 3.5 20.5t1.5 22.5q0 36 -17.5 63.5t-62.5 27.5t-84.5 -35.5t-57.5 -98.5h217zM185 -214q-23 0 -42 14.5t-19 41.5q0 29 21 49.5t51 20.5q23 0 42 -14.5t19 -41.5q0 -30 -21 -50t-51 -20z" />
    <glyph glyph-name="uni1EBB" unicode="&#x1ebb;" horiz-adv-x="488" 
d="M33 196q0 69 23.5 125.5t62 97t86.5 62.5t96 22q43 0 72.5 -14t48 -38.5t27 -57.5t8.5 -71q0 -32 -8 -62t-13 -42h-299q-4 -39 4 -67t24.5 -46t40.5 -26.5t52 -8.5q26 0 53 12t47 27l40 -69q-30 -21 -72.5 -36.5t-95.5 -15.5q-44 0 -80 14t-62 40.5t-40.5 65t-14.5 88.5z
M363 286q2 10 3.5 20.5t1.5 22.5q0 36 -17.5 63.5t-62.5 27.5t-84.5 -35.5t-57.5 -98.5h217zM307 736q73 -2 102.5 -22t29.5 -51q0 -25 -10.5 -43.5t-29 -31.5t-43.5 -21.5t-53 -12.5l-6 46q28 8 44.5 17t16.5 28q0 15 -15.5 23.5t-56.5 11.5z" />
    <glyph glyph-name="uni1EBD" unicode="&#x1ebd;" horiz-adv-x="488" 
d="M33 196q0 69 23.5 125.5t62 97t86.5 62.5t96 22q43 0 72.5 -14t48 -38.5t27 -57.5t8.5 -71q0 -32 -8 -62t-13 -42h-299q-4 -39 4 -67t24.5 -46t40.5 -26.5t52 -8.5q26 0 53 12t47 27l40 -69q-30 -21 -72.5 -36.5t-95.5 -15.5q-44 0 -80 14t-62 40.5t-40.5 65t-14.5 88.5z
M363 286q2 10 3.5 20.5t1.5 22.5q0 36 -17.5 63.5t-62.5 27.5t-84.5 -35.5t-57.5 -98.5h217zM173 578q16 55 44.5 85.5t61.5 30.5q22 0 36.5 -7.5t26 -17t22.5 -17t27 -7.5q22 0 42 47h58q-15 -54 -43.5 -85t-62.5 -31q-22 0 -36.5 8t-26 17l-22.5 17t-27 8q-22 0 -42 -48
h-58z" />
    <glyph glyph-name="uni1EBF" unicode="&#x1ebf;" horiz-adv-x="488" 
d="M33 196q0 69 23.5 125.5t62 97t86.5 62.5t96 22q43 0 72.5 -14t48 -38.5t27 -57.5t8.5 -71q0 -32 -8 -62t-13 -42h-299q-4 -39 4 -67t24.5 -46t40.5 -26.5t52 -8.5q26 0 53 12t47 27l40 -69q-30 -21 -72.5 -36.5t-95.5 -15.5q-44 0 -80 14t-62 40.5t-40.5 65t-14.5 88.5z
M363 286q2 10 3.5 20.5t1.5 22.5q0 36 -17.5 63.5t-62.5 27.5t-84.5 -35.5t-57.5 -98.5h217zM298 695h82l54 -123h-64l-38 69h-4l-63 -69h-72zM514 757h84l-110 -116h-63z" />
    <glyph glyph-name="uni1EC1" unicode="&#x1ec1;" horiz-adv-x="488" 
d="M33 196q0 69 23.5 125.5t62 97t86.5 62.5t96 22q43 0 72.5 -14t48 -38.5t27 -57.5t8.5 -71q0 -32 -8 -62t-13 -42h-299q-4 -39 4 -67t24.5 -46t40.5 -26.5t52 -8.5q26 0 53 12t47 27l40 -69q-30 -21 -72.5 -36.5t-95.5 -15.5q-44 0 -80 14t-62 40.5t-40.5 65t-14.5 88.5z
M363 286q2 10 3.5 20.5t1.5 22.5q0 36 -17.5 63.5t-62.5 27.5t-84.5 -35.5t-57.5 -98.5h217zM541 641h-63l-64 116h82zM298 695h82l54 -123h-64l-38 69h-4l-63 -69h-72z" />
    <glyph glyph-name="uni1EC3" unicode="&#x1ec3;" horiz-adv-x="488" 
d="M33 196q0 69 23.5 125.5t62 97t86.5 62.5t96 22q43 0 72.5 -14t48 -38.5t27 -57.5t8.5 -71q0 -32 -8 -62t-13 -42h-299q-4 -39 4 -67t24.5 -46t40.5 -26.5t52 -8.5q26 0 53 12t47 27l40 -69q-30 -21 -72.5 -36.5t-95.5 -15.5q-44 0 -80 14t-62 40.5t-40.5 65t-14.5 88.5z
M363 286q2 10 3.5 20.5t1.5 22.5q0 36 -17.5 63.5t-62.5 27.5t-84.5 -35.5t-57.5 -98.5h217zM450 792q63 -3 89.5 -20.5t26.5 -44.5q0 -24 -9 -41t-25 -28.5t-38 -18.5t-47 -12l-3 39q25 8 36 17.5t11 26.5q0 14 -12.5 22t-46.5 12zM298 695h82l54 -123h-64l-38 69h-4
l-63 -69h-72z" />
    <glyph glyph-name="uni1EC5" unicode="&#x1ec5;" horiz-adv-x="488" 
d="M33 196q0 69 23.5 125.5t62 97t86.5 62.5t96 22q43 0 72.5 -14t48 -38.5t27 -57.5t8.5 -71q0 -32 -8 -62t-13 -42h-299q-4 -39 4 -67t24.5 -46t40.5 -26.5t52 -8.5q26 0 53 12t47 27l40 -69q-30 -21 -72.5 -36.5t-95.5 -15.5q-44 0 -80 14t-62 40.5t-40.5 65t-14.5 88.5z
M363 286q2 10 3.5 20.5t1.5 22.5q0 36 -17.5 63.5t-62.5 27.5t-84.5 -35.5t-57.5 -98.5h217zM444 572h-68l-46 60h-4l-65 -60h-77l103 105h97zM210 714q15 48 41 74t55 26q18 0 30.5 -6.5t23 -14.5t20 -14.5t21.5 -6.5q11 0 23 10.5t19 30.5h50q-15 -48 -41.5 -74t-55.5 -26
q-18 0 -30.5 6.5t-22.5 14.5t-19.5 14.5t-21.5 6.5q-11 0 -22.5 -10.5t-18.5 -30.5h-51z" />
    <glyph glyph-name="uni1EC7" unicode="&#x1ec7;" horiz-adv-x="488" 
d="M33 196q0 69 23.5 125.5t62 97t86.5 62.5t96 22q43 0 72.5 -14t48 -38.5t27 -57.5t8.5 -71q0 -32 -8 -62t-13 -42h-299q-4 -39 4 -67t24.5 -46t40.5 -26.5t52 -8.5q26 0 53 12t47 27l40 -69q-30 -21 -72.5 -36.5t-95.5 -15.5q-44 0 -80 14t-62 40.5t-40.5 65t-14.5 88.5z
M363 286q2 10 3.5 20.5t1.5 22.5q0 36 -17.5 63.5t-62.5 27.5t-84.5 -35.5t-57.5 -98.5h217zM303 717h83l64 -145h-71l-41 86h-4l-76 -86h-77zM185 -214q-23 0 -42 14.5t-19 41.5q0 29 21 49.5t51 20.5q23 0 42 -14.5t19 -41.5q0 -30 -21 -50t-51 -20z" />
    <glyph glyph-name="eogonek" unicode="&#x119;" horiz-adv-x="488" 
d="M174 -138q0 23 9 43.5t22 37t26 28.5l21 19q-5 -1 -10.5 -1.5t-10.5 -0.5q-44 0 -80.5 14t-62.5 40.5t-40.5 65t-14.5 88.5q0 69 23.5 125.5t62 97t86.5 62.5t96 22q43 0 72.5 -14t48 -38.5t27 -57.5t8.5 -71q0 -32 -8 -62t-13 -42h-299q-4 -39 4 -67t24.5 -46
t40.5 -26.5t52 -8.5q26 0 53 12t47 27l40 -69q-44 -23 -71.5 -44t-44 -39.5t-22.5 -35t-6 -29.5q0 -16 10.5 -24.5t25.5 -8.5q16 0 35 11l19 -48q-19 -13 -44 -21.5t-46 -8.5q-35 0 -57.5 17.5t-22.5 52.5zM363 286q2 10 3.5 20.5t1.5 22.5q0 36 -17.5 63.5t-62.5 27.5
t-84.5 -35.5t-57.5 -98.5h217z" />
    <glyph glyph-name="gcircumflex" unicode="&#x11d;" horiz-adv-x="538" 
d="M515 491l-100 -498q-21 -104 -84 -157.5t-161 -53.5q-47 0 -92.5 18t-84.5 50l48 72q28 -23 61 -38.5t71 -15.5q56 0 90 32.5t50 91.5l24 91h-3q-35 -33 -73.5 -53t-82.5 -20q-62 0 -102.5 43.5t-40.5 129.5q0 67 21.5 125t57.5 101.5t82.5 68.5t96.5 25q36 0 65.5 -18.5
t45.5 -50.5h3l21 57h87zM217 99q29 0 63.5 17.5t63.5 56.5l37 182q-17 32 -38 46t-44 14q-30 0 -57.5 -17.5t-49 -47.5t-34 -69.5t-12.5 -83.5q0 -50 19.5 -74t51.5 -24zM309 717h83l64 -145h-71l-41 86h-4l-76 -86h-77z" />
    <glyph glyph-name="gbreve" unicode="&#x11f;" horiz-adv-x="538" 
d="M515 491l-100 -498q-21 -104 -84 -157.5t-161 -53.5q-47 0 -92.5 18t-84.5 50l48 72q28 -23 61 -38.5t71 -15.5q56 0 90 32.5t50 91.5l24 91h-3q-35 -33 -73.5 -53t-82.5 -20q-62 0 -102.5 43.5t-40.5 129.5q0 67 21.5 125t57.5 101.5t82.5 68.5t96.5 25q36 0 65.5 -18.5
t45.5 -50.5h3l21 57h87zM217 99q29 0 63.5 17.5t63.5 56.5l37 182q-17 32 -38 46t-44 14q-30 0 -57.5 -17.5t-49 -47.5t-34 -69.5t-12.5 -83.5q0 -50 19.5 -74t51.5 -24zM322 575q-31 0 -52 11t-33 29.5t-15.5 42t1.5 48.5h59q-3 -31 8.5 -51t41.5 -20q31 0 51 20.5t30 50.5
h62q-7 -25 -19.5 -48.5t-31.5 -42t-44.5 -29.5t-57.5 -11z" />
    <glyph glyph-name="gdotaccent" unicode="&#x121;" horiz-adv-x="538" 
d="M515 491l-100 -498q-21 -104 -84 -157.5t-161 -53.5q-47 0 -92.5 18t-84.5 50l48 72q28 -23 61 -38.5t71 -15.5q56 0 90 32.5t50 91.5l24 91h-3q-35 -33 -73.5 -53t-82.5 -20q-62 0 -102.5 43.5t-40.5 129.5q0 67 21.5 125t57.5 101.5t82.5 68.5t96.5 25q36 0 65.5 -18.5
t45.5 -50.5h3l21 57h87zM217 99q29 0 63.5 17.5t63.5 56.5l37 182q-17 32 -38 46t-44 14q-30 0 -57.5 -17.5t-49 -47.5t-34 -69.5t-12.5 -83.5q0 -50 19.5 -74t51.5 -24zM329 578q-24 0 -43 14.5t-19 41.5q0 29 21.5 49.5t50.5 20.5q24 0 43 -14.5t19 -41.5q0 -30 -21 -50
t-51 -20z" />
    <glyph glyph-name="uni0123" unicode="&#x123;" horiz-adv-x="538" 
d="M515 491l-100 -498q-21 -104 -84 -157.5t-161 -53.5q-47 0 -92.5 18t-84.5 50l48 72q28 -23 61 -38.5t71 -15.5q56 0 90 32.5t50 91.5l24 91h-3q-35 -33 -73.5 -53t-82.5 -20q-62 0 -102.5 43.5t-40.5 129.5q0 67 21.5 125t57.5 101.5t82.5 68.5t96.5 25q36 0 65.5 -18.5
t45.5 -50.5h3l21 57h87zM217 99q29 0 63.5 17.5t63.5 56.5l37 182q-17 32 -38 46t-44 14q-30 0 -57.5 -17.5t-49 -47.5t-34 -69.5t-12.5 -83.5q0 -50 19.5 -74t51.5 -24zM347 543q-40 8 -63 24.5t-23 46.5q0 28 13.5 46.5t36.5 30t53 17.5t63 8l4 -45q-45 -5 -68.5 -16.5
t-23.5 -34.5q0 -14 10.5 -22t26.5 -14z" />
    <glyph glyph-name="gcaron" unicode="&#x1e7;" horiz-adv-x="538" 
d="M515 491l-100 -498q-21 -104 -84 -157.5t-161 -53.5q-47 0 -92.5 18t-84.5 50l48 72q28 -23 61 -38.5t71 -15.5q56 0 90 32.5t50 91.5l24 91h-3q-35 -33 -73.5 -53t-82.5 -20q-62 0 -102.5 43.5t-40.5 129.5q0 67 21.5 125t57.5 101.5t82.5 68.5t96.5 25q36 0 65.5 -18.5
t45.5 -50.5h3l21 57h87zM217 99q29 0 63.5 17.5t63.5 56.5l37 182q-17 32 -38 46t-44 14q-30 0 -57.5 -17.5t-49 -47.5t-34 -69.5t-12.5 -83.5q0 -50 19.5 -74t51.5 -24zM365 572h-83l-65 145h71l42 -85h4l75 85h78z" />
    <glyph glyph-name="uni1E21" unicode="&#x1e21;" horiz-adv-x="538" 
d="M515 491l-100 -498q-21 -104 -84 -157.5t-161 -53.5q-47 0 -92.5 18t-84.5 50l48 72q28 -23 61 -38.5t71 -15.5q56 0 90 32.5t50 91.5l24 91h-3q-35 -33 -73.5 -53t-82.5 -20q-62 0 -102.5 43.5t-40.5 129.5q0 67 21.5 125t57.5 101.5t82.5 68.5t96.5 25q36 0 65.5 -18.5
t45.5 -50.5h3l21 57h87zM217 99q29 0 63.5 17.5t63.5 56.5l37 182q-17 32 -38 46t-44 14q-30 0 -57.5 -17.5t-49 -47.5t-34 -69.5t-12.5 -83.5q0 -50 19.5 -74t51.5 -24zM215 668h249l-13 -71h-250z" />
    <glyph glyph-name="uni00670303" horiz-adv-x="538" 
d="M515 491l-100 -498q-21 -104 -84 -157.5t-161 -53.5q-47 0 -92.5 18t-84.5 50l48 72q28 -23 61 -38.5t71 -15.5q56 0 90 32.5t50 91.5l24 91h-3q-35 -33 -73.5 -53t-82.5 -20q-62 0 -102.5 43.5t-40.5 129.5q0 67 21.5 125t57.5 101.5t82.5 68.5t96.5 25q36 0 65.5 -18.5
t45.5 -50.5h3l21 57h87zM217 99q29 0 63.5 17.5t63.5 56.5l37 182q-17 32 -38 46t-44 14q-30 0 -57.5 -17.5t-49 -47.5t-34 -69.5t-12.5 -83.5q0 -50 19.5 -74t51.5 -24zM179 578q16 55 44.5 85.5t61.5 30.5q22 0 36.5 -7.5t26 -17t22.5 -17t27 -7.5q22 0 42 47h58
q-15 -54 -43.5 -85t-62.5 -31q-22 0 -36.5 8t-26 17l-22.5 17t-27 8q-22 0 -42 -48h-58z" />
    <glyph glyph-name="hcircumflex" unicode="&#x125;" horiz-adv-x="533" 
d="M164 706h107l-43 -208l-19 -71h4q38 32 77.5 54t84.5 22q62 0 89 -32t27 -92q0 -17 -1.5 -33t-6.5 -36l-62 -310h-107l60 296q3 17 5.5 29t2.5 23q0 63 -62 63q-26 0 -55.5 -18t-68.5 -58l-66 -335h-108zM192 868h104l69 -114h-80l-46 66h-3l-70 -66h-88z" />
    <glyph glyph-name="uni1E25" unicode="&#x1e25;" horiz-adv-x="533" 
d="M164 706h107l-43 -208l-19 -71h4q38 32 77.5 54t84.5 22q62 0 89 -32t27 -92q0 -17 -1.5 -33t-6.5 -36l-62 -310h-107l60 296q3 17 5.5 29t2.5 23q0 63 -62 63q-26 0 -55.5 -18t-68.5 -58l-66 -335h-108zM196 -214q-23 0 -42 14.5t-19 41.5q0 29 21 49.5t51 20.5
q23 0 42 -14.5t19 -41.5q0 -30 -21 -50t-51 -20z" />
    <glyph glyph-name="uni1E2B" unicode="&#x1e2b;" horiz-adv-x="533" 
d="M164 706h107l-43 -208l-19 -71h4q38 32 77.5 54t84.5 22q62 0 89 -32t27 -92q0 -17 -1.5 -33t-6.5 -36l-62 -310h-107l60 296q3 17 5.5 29t2.5 23q0 63 -62 63q-26 0 -55.5 -18t-68.5 -58l-66 -335h-108zM189 -207q-31 0 -52 11t-33 29.5t-15.5 42t1.5 48.5h59
q-3 -31 8.5 -51t41.5 -20q31 0 51 20.5t30 50.5h62q-7 -25 -19.5 -48.5t-31.5 -42t-44.5 -29.5t-57.5 -11z" />
    <glyph glyph-name="hbar" unicode="&#x127;" horiz-adv-x="533" 
d="M209 407q38 32 77.5 54t84.5 22q62 0 89 -32t27 -92q0 -17 -1.5 -33t-6.5 -36l-58 -290h-107l56 276q3 17 5.5 29t2.5 23q0 63 -62 63q-26 0 -55.5 -18t-68.5 -58l-62 -315h-108l114 565h-70l10 51l71 5l17 85h107l-18 -85h169l-12 -56h-168l-18 -87l-19 -71h4z" />
    <glyph glyph-name="igrave" unicode="&#xec;" horiz-adv-x="251" 
d="M121 491h107l-98 -491h-108zM95 717h102l57 -145h-75z" />
    <glyph glyph-name="iacute" unicode="&#xed;" horiz-adv-x="251" 
d="M121 491h107l-98 -491h-108zM229 717h110l-142 -145h-84z" />
    <glyph glyph-name="icircumflex" unicode="&#xee;" horiz-adv-x="251" 
d="M121 491h107l-98 -491h-108zM175 717h83l64 -145h-71l-41 86h-4l-76 -86h-77z" />
    <glyph glyph-name="itilde" unicode="&#x129;" horiz-adv-x="251" 
d="M121 491h107l-98 -491h-108zM45 578q16 55 44.5 85.5t61.5 30.5q22 0 36.5 -7.5t26 -17t22.5 -17t27 -7.5q22 0 42 47h58q-15 -54 -43.5 -85t-62.5 -31q-22 0 -36.5 8t-26 17l-22.5 17t-27 8q-22 0 -42 -48h-58z" />
    <glyph glyph-name="idieresis" unicode="&#xef;" horiz-adv-x="251" 
d="M121 491h107l-98 -491h-108zM105 580q-22 0 -36 13t-14 37q0 26 18.5 45.5t44.5 19.5q21 0 35.5 -13.5t14.5 -37.5q0 -27 -18.5 -45.5t-44.5 -18.5zM283 580q-22 0 -36 13t-14 37q0 26 18.5 45.5t44.5 19.5q22 0 36 -13.5t14 -37.5q0 -27 -18.5 -45.5t-44.5 -18.5z" />
    <glyph glyph-name="imacron" unicode="&#x12b;" horiz-adv-x="251" 
d="M121 491h107l-98 -491h-108zM81 668h249l-13 -71h-250z" />
    <glyph glyph-name="uni01D0" unicode="&#x1d0;" horiz-adv-x="251" 
d="M121 491h107l-98 -491h-108zM231 572h-83l-65 145h71l42 -85h4l75 85h78z" />
    <glyph glyph-name="uni1EC9" unicode="&#x1ec9;" horiz-adv-x="251" 
d="M121 491h107l-98 -491h-108zM178 736q73 -2 102.5 -22t29.5 -51q0 -25 -10.5 -43.5t-29 -31.5t-43.5 -21.5t-53 -12.5l-6 46q28 8 44.5 17t16.5 28q0 15 -15.5 23.5t-56.5 11.5z" />
    <glyph glyph-name="uni1ECB" unicode="&#x1ecb;" horiz-adv-x="251" 
d="M121 491h107l-98 -491h-108zM200 578q-23 0 -42 14.5t-19 41.5q0 29 21 49.5t51 20.5q23 0 42 -14.5t19 -41.5q0 -30 -21 -50t-51 -20zM47 -214q-23 0 -42 14.5t-19 41.5q0 29 21 49.5t51 20.5q23 0 42 -14.5t19 -41.5q0 -30 -21 -50t-51 -20z" />
    <glyph glyph-name="iogonek" unicode="&#x12f;" horiz-adv-x="251" 
d="M121 491h107l-98 -491q-46 -23 -68 -51t-22 -57q0 -16 10.5 -24.5t25.5 -8.5q17 0 34 11l20 -48q-19 -13 -44 -21.5t-46 -8.5q-35 0 -57.5 17.5t-22.5 52.5q0 23 9.5 44t23.5 39t29.5 32t28.5 23h-29zM200 578q-23 0 -42 14.5t-19 41.5q0 29 21 49.5t51 20.5
q23 0 42 -14.5t19 -41.5q0 -30 -21 -50t-51 -20z" />
    <glyph glyph-name="iogonek.d" horiz-adv-x="251" 
d="M121 491h107l-98 -491q-46 -23 -68 -51t-22 -57q0 -16 10.5 -24.5t25.5 -8.5q17 0 34 11l20 -48q-19 -13 -44 -21.5t-46 -8.5q-35 0 -57.5 17.5t-22.5 52.5q0 23 9.5 44t23.5 39t29.5 32t28.5 23h-29z" />
    <glyph glyph-name="dotlessi" unicode="&#x131;" horiz-adv-x="251" 
d="M121 491h107l-98 -491h-108z" />
    <glyph glyph-name="jcircumflex" unicode="&#x135;" horiz-adv-x="252" 
d="M123 -38q-8 -36 -21 -67t-32.5 -53.5t-47 -35t-64.5 -12.5q-25 0 -45 4.5t-41 15.5l34 78q19 -12 44 -12q27 0 41.5 21t24.5 63l106 527h107zM173 717h83l64 -145h-71l-41 86h-4l-76 -86h-77z" />
    <glyph glyph-name="uni0137" unicode="&#x137;" horiz-adv-x="501" 
d="M164 706h107l-89 -444h4l217 229h120l-198 -210l117 -281h-108l-84 218l-96 -97l-24 -121h-108zM194 -42q40 -8 63 -24t23 -46q0 -28 -13.5 -46.5t-36.5 -30t-53 -17.5t-63 -8l-4 45q45 5 68.5 16.5t23.5 34.5q0 14 -10.5 22t-26.5 13z" />
    <glyph glyph-name="kgreenlandic" unicode="&#x138;" horiz-adv-x="501" 
d="M120 491h107l-45 -229h4l217 229h120l-198 -210l117 -281h-108l-84 218l-96 -97l-24 -121h-108z" />
    <glyph glyph-name="lacute" unicode="&#x13a;" horiz-adv-x="262" 
d="M164 706h107l-118 -591q-2 -8 -2 -12v-7q0 -21 17 -21q5 0 8 0.5t10 2.5l-2 -80q-11 -5 -26 -7.5t-35 -2.5q-43 0 -63 21t-20 59q0 23 7 52zM269 872h119l-133 -114h-90z" />
    <glyph glyph-name="lcaron" unicode="&#x13e;" horiz-adv-x="262" 
d="M164 706h107l-118 -591q-2 -8 -2 -12v-7q0 -21 17 -21q5 0 8 0.5t10 2.5l-2 -80q-11 -5 -26 -7.5t-35 -2.5q-43 0 -63 21t-20 59q0 23 7 52zM283 548l40 217h71l-13 -63l-49 -154h-49z" />
    <glyph glyph-name="ldot" unicode="&#x140;" horiz-adv-x="377" 
d="M164 706h107l-118 -591q-2 -8 -2 -12v-7q0 -21 17 -21q5 0 8 0.5t10 2.5l-2 -80q-11 -5 -26 -7.5t-35 -2.5q-43 0 -63 21t-20 59q0 23 7 52zM319 259q-27 0 -43 17.5t-16 44.5q0 16 6 31.5t17.5 27.5t26.5 19.5t33 7.5q27 0 42.5 -18t15.5 -45q0 -16 -6 -31.5
t-16.5 -27.5t-26 -19t-33.5 -7z" />
    <glyph glyph-name="uni013C" unicode="&#x13c;" horiz-adv-x="262" 
d="M164 706h107l-118 -591q-2 -8 -2 -12v-7q0 -21 17 -21q5 0 8 0.5t10 2.5l-2 -80q-11 -5 -26 -7.5t-35 -2.5q-43 0 -63 21t-20 59q0 23 7 52zM43 -42q40 -8 63 -24t23 -46q0 -28 -13.5 -46.5t-36.5 -30t-53 -17.5t-63 -8l-4 45q45 5 68.5 16.5t23.5 34.5q0 14 -10.5 22
t-26.5 13z" />
    <glyph glyph-name="uni1E37" unicode="&#x1e37;" horiz-adv-x="262" 
d="M164 706h107l-118 -591q-2 -8 -2 -12v-7q0 -21 17 -21q5 0 8 0.5t10 2.5l-2 -80q-11 -5 -26 -7.5t-35 -2.5q-43 0 -63 21t-20 59q0 23 7 52zM44 -214q-23 0 -42 14.5t-19 41.5q0 29 21 49.5t51 20.5q23 0 42 -14.5t19 -41.5q0 -30 -21 -50t-51 -20z" />
    <glyph glyph-name="uni1E39" unicode="&#x1e39;" horiz-adv-x="262" 
d="M164 706h107l-118 -591q-2 -8 -2 -12v-7q0 -21 17 -21q5 0 8 0.5t10 2.5l-2 -80q-11 -5 -26 -7.5t-35 -2.5q-43 0 -63 21t-20 59q0 23 7 52zM122 884h249l-13 -71h-250zM44 -214q-23 0 -42 14.5t-19 41.5q0 29 21 49.5t51 20.5q23 0 42 -14.5t19 -41.5q0 -30 -21 -50
t-51 -20z" />
    <glyph glyph-name="uni1E3B" unicode="&#x1e3b;" horiz-adv-x="262" 
d="M164 706h107l-118 -591q-2 -8 -2 -12v-7q0 -21 17 -21q5 0 8 0.5t10 2.5l-2 -80q-11 -5 -26 -7.5t-35 -2.5q-43 0 -63 21t-20 59q0 23 7 52zM-66 -100h249l-13 -71h-250z" />
    <glyph glyph-name="lslash" unicode="&#x142;" horiz-adv-x="269" 
d="M160 115q-2 -8 -2 -12v-7q0 -11 5 -16t13 -5q4 0 7 0.5t10 2.5l-2 -80q-11 -5 -26 -7.5t-35 -2.5q-43 0 -62.5 21t-19.5 59q0 20 6 52l38 190l-69 -38l19 90l68 38l61 306h107l-50 -251l74 44l-16 -89l-76 -44z" />
    <glyph glyph-name="uni1E43" unicode="&#x1e43;" horiz-adv-x="813" 
d="M120 491h87l-5 -69h4q38 33 79 57t81 24q28 0 48 -7t33.5 -19t21 -28.5t11.5 -36.5q44 42 87 66.5t83 24.5q61 0 88.5 -32t27.5 -92q0 -17 -2 -33t-6 -36l-62 -310h-108l60 296q4 17 6 29t2 23q0 63 -60 63q-19 0 -49 -18t-68 -58l-67 -335h-107l59 296q4 17 6 29t2 23
q0 63 -59 63q-20 0 -50 -18t-67 -58l-66 -335h-108zM333 -214q-23 0 -42 14.5t-19 41.5q0 29 21 49.5t51 20.5q23 0 42 -14.5t19 -41.5q0 -30 -21 -50t-51 -20z" />
    <glyph glyph-name="nacute" unicode="&#x144;" horiz-adv-x="539" 
d="M120 491h87l-5 -69h4q39 33 80.5 57t88.5 24q62 0 89 -32t27 -92q0 -17 -1.5 -33t-6.5 -36l-62 -310h-107l60 296q3 17 5.5 29t2.5 23q0 63 -62 63q-26 0 -55.5 -18t-68.5 -58l-66 -335h-108zM391 717h110l-142 -145h-84z" />
    <glyph glyph-name="ncaron" unicode="&#x148;" horiz-adv-x="539" 
d="M120 491h87l-5 -69h4q39 33 80.5 57t88.5 24q62 0 89 -32t27 -92q0 -17 -1.5 -33t-6.5 -36l-62 -310h-107l60 296q3 17 5.5 29t2.5 23q0 63 -62 63q-26 0 -55.5 -18t-68.5 -58l-66 -335h-108zM393 572h-83l-65 145h71l42 -85h4l75 85h78z" />
    <glyph glyph-name="ntilde" unicode="&#xf1;" horiz-adv-x="539" 
d="M120 491h87l-5 -69h4q39 33 80.5 57t88.5 24q62 0 89 -32t27 -92q0 -17 -1.5 -33t-6.5 -36l-62 -310h-107l60 296q3 17 5.5 29t2.5 23q0 63 -62 63q-26 0 -55.5 -18t-68.5 -58l-66 -335h-108zM207 578q16 55 44.5 85.5t61.5 30.5q22 0 36.5 -7.5t26 -17t22.5 -17t27 -7.5
q22 0 42 47h58q-15 -54 -43.5 -85t-62.5 -31q-22 0 -36.5 8t-26 17l-22.5 17t-27 8q-22 0 -42 -48h-58z" />
    <glyph glyph-name="uni0146" unicode="&#x146;" horiz-adv-x="539" 
d="M120 491h87l-5 -69h4q39 33 80.5 57t88.5 24q62 0 89 -32t27 -92q0 -17 -1.5 -33t-6.5 -36l-62 -310h-107l60 296q3 17 5.5 29t2.5 23q0 63 -62 63q-26 0 -55.5 -18t-68.5 -58l-66 -335h-108zM197 -42q40 -8 63 -24t23 -46q0 -28 -13.5 -46.5t-36.5 -30t-53 -17.5t-63 -8
l-4 45q45 5 68.5 16.5t23.5 34.5q0 14 -10.5 22t-26.5 13z" />
    <glyph glyph-name="uni1E45" unicode="&#x1e45;" horiz-adv-x="539" 
d="M120 491h87l-5 -69h4q39 33 80.5 57t88.5 24q62 0 89 -32t27 -92q0 -17 -1.5 -33t-6.5 -36l-62 -310h-107l60 296q3 17 5.5 29t2.5 23q0 63 -62 63q-26 0 -55.5 -18t-68.5 -58l-66 -335h-108zM357 578q-24 0 -43 14.5t-19 41.5q0 29 21.5 49.5t50.5 20.5q24 0 43 -14.5
t19 -41.5q0 -30 -21 -50t-51 -20z" />
    <glyph glyph-name="uni1E47" unicode="&#x1e47;" horiz-adv-x="539" 
d="M120 491h87l-5 -69h4q39 33 80.5 57t88.5 24q62 0 89 -32t27 -92q0 -17 -1.5 -33t-6.5 -36l-62 -310h-107l60 296q3 17 5.5 29t2.5 23q0 63 -62 63q-26 0 -55.5 -18t-68.5 -58l-66 -335h-108zM198 -214q-23 0 -42 14.5t-19 41.5q0 29 21 49.5t51 20.5q23 0 42 -14.5
t19 -41.5q0 -30 -21 -50t-51 -20z" />
    <glyph glyph-name="uni1E49" unicode="&#x1e49;" horiz-adv-x="539" 
d="M120 491h87l-5 -69h4q39 33 80.5 57t88.5 24q62 0 89 -32t27 -92q0 -17 -1.5 -33t-6.5 -36l-62 -310h-107l60 296q3 17 5.5 29t2.5 23q0 63 -62 63q-26 0 -55.5 -18t-68.5 -58l-66 -335h-108zM88 -100h249l-13 -71h-250z" />
    <glyph glyph-name="napostrophe" unicode="&#x149;" horiz-adv-x="781" 
d="M109 457q51 22 77.5 56.5t27.5 61.5h-5q-26 0 -43.5 14t-17.5 40q0 28 19 48.5t51 20.5q29 0 46 -21.5t17 -60.5q0 -40 -12 -73t-33 -59.5t-49 -45.5t-59 -30zM366 491h87l-5 -69h4q39 33 80.5 57t88.5 24q62 0 89 -32t27 -92q0 -17 -1.5 -33t-6.5 -36l-62 -310h-107
l60 296q3 17 5.5 29t2.5 23q0 63 -62 63q-26 0 -55.5 -18t-68.5 -58l-66 -335h-108z" />
    <glyph glyph-name="ograve" unicode="&#xf2;" horiz-adv-x="524" 
d="M217 -12q-41 0 -75 14t-58 40t-37 63t-13 83q0 70 23.5 128.5t61.5 99.5t86.5 64t98.5 23q84 0 134 -53.5t50 -146.5q0 -70 -23.5 -128t-61.5 -99.5t-86.5 -64.5t-99.5 -23zM293 416q-29 0 -56.5 -17.5t-48.5 -47.5t-33.5 -71t-12.5 -88q0 -56 22 -86.5t65 -30.5
q29 0 56 17.5t48 48t33.5 71.5t12.5 88q0 56 -22 86t-64 30zM238 717h102l57 -145h-75z" />
    <glyph glyph-name="oacute" unicode="&#xf3;" horiz-adv-x="524" 
d="M217 -12q-41 0 -75 14t-58 40t-37 63t-13 83q0 70 23.5 128.5t61.5 99.5t86.5 64t98.5 23q84 0 134 -53.5t50 -146.5q0 -70 -23.5 -128t-61.5 -99.5t-86.5 -64.5t-99.5 -23zM293 416q-29 0 -56.5 -17.5t-48.5 -47.5t-33.5 -71t-12.5 -88q0 -56 22 -86.5t65 -30.5
q29 0 56 17.5t48 48t33.5 71.5t12.5 88q0 56 -22 86t-64 30zM372 717h110l-142 -145h-84z" />
    <glyph glyph-name="ocircumflex" unicode="&#xf4;" horiz-adv-x="524" 
d="M217 -12q-41 0 -75 14t-58 40t-37 63t-13 83q0 70 23.5 128.5t61.5 99.5t86.5 64t98.5 23q84 0 134 -53.5t50 -146.5q0 -70 -23.5 -128t-61.5 -99.5t-86.5 -64.5t-99.5 -23zM293 416q-29 0 -56.5 -17.5t-48.5 -47.5t-33.5 -71t-12.5 -88q0 -56 22 -86.5t65 -30.5
q29 0 56 17.5t48 48t33.5 71.5t12.5 88q0 56 -22 86t-64 30zM318 717h83l64 -145h-71l-41 86h-4l-76 -86h-77z" />
    <glyph glyph-name="otilde" unicode="&#xf5;" horiz-adv-x="524" 
d="M217 -12q-41 0 -75 14t-58 40t-37 63t-13 83q0 70 23.5 128.5t61.5 99.5t86.5 64t98.5 23q84 0 134 -53.5t50 -146.5q0 -70 -23.5 -128t-61.5 -99.5t-86.5 -64.5t-99.5 -23zM293 416q-29 0 -56.5 -17.5t-48.5 -47.5t-33.5 -71t-12.5 -88q0 -56 22 -86.5t65 -30.5
q29 0 56 17.5t48 48t33.5 71.5t12.5 88q0 56 -22 86t-64 30zM188 578q16 55 44.5 85.5t61.5 30.5q22 0 36.5 -7.5t26 -17t22.5 -17t27 -7.5q22 0 42 47h58q-15 -54 -43.5 -85t-62.5 -31q-22 0 -36.5 8t-26 17l-22.5 17t-27 8q-22 0 -42 -48h-58z" />
    <glyph glyph-name="odieresis" unicode="&#xf6;" horiz-adv-x="524" 
d="M217 -12q-41 0 -75 14t-58 40t-37 63t-13 83q0 70 23.5 128.5t61.5 99.5t86.5 64t98.5 23q84 0 134 -53.5t50 -146.5q0 -70 -23.5 -128t-61.5 -99.5t-86.5 -64.5t-99.5 -23zM293 416q-29 0 -56.5 -17.5t-48.5 -47.5t-33.5 -71t-12.5 -88q0 -56 22 -86.5t65 -30.5
q29 0 56 17.5t48 48t33.5 71.5t12.5 88q0 56 -22 86t-64 30zM248 580q-22 0 -36 13t-14 37q0 26 18.5 45.5t44.5 19.5q21 0 35.5 -13.5t14.5 -37.5q0 -27 -18.5 -45.5t-44.5 -18.5zM426 580q-22 0 -36 13t-14 37q0 26 18.5 45.5t44.5 19.5q22 0 36 -13.5t14 -37.5
q0 -27 -18.5 -45.5t-44.5 -18.5z" />
    <glyph glyph-name="omacron" unicode="&#x14d;" horiz-adv-x="524" 
d="M217 -12q-41 0 -75 14t-58 40t-37 63t-13 83q0 70 23.5 128.5t61.5 99.5t86.5 64t98.5 23q84 0 134 -53.5t50 -146.5q0 -70 -23.5 -128t-61.5 -99.5t-86.5 -64.5t-99.5 -23zM293 416q-29 0 -56.5 -17.5t-48.5 -47.5t-33.5 -71t-12.5 -88q0 -56 22 -86.5t65 -30.5
q29 0 56 17.5t48 48t33.5 71.5t12.5 88q0 56 -22 86t-64 30zM224 668h249l-13 -71h-250z" />
    <glyph glyph-name="ohungarumlaut" unicode="&#x151;" horiz-adv-x="524" 
d="M217 -12q-41 0 -75 14t-58 40t-37 63t-13 83q0 70 23.5 128.5t61.5 99.5t86.5 64t98.5 23q84 0 134 -53.5t50 -146.5q0 -70 -23.5 -128t-61.5 -99.5t-86.5 -64.5t-99.5 -23zM293 416q-29 0 -56.5 -17.5t-48.5 -47.5t-33.5 -71t-12.5 -88q0 -56 22 -86.5t65 -30.5
q29 0 56 17.5t48 48t33.5 71.5t12.5 88q0 56 -22 86t-64 30zM320 718h91l-121 -146h-71zM473 718h91l-121 -146h-71z" />
    <glyph glyph-name="uni01D2" unicode="&#x1d2;" horiz-adv-x="524" 
d="M217 -12q-41 0 -75 14t-58 40t-37 63t-13 83q0 70 23.5 128.5t61.5 99.5t86.5 64t98.5 23q84 0 134 -53.5t50 -146.5q0 -70 -23.5 -128t-61.5 -99.5t-86.5 -64.5t-99.5 -23zM293 416q-29 0 -56.5 -17.5t-48.5 -47.5t-33.5 -71t-12.5 -88q0 -56 22 -86.5t65 -30.5
q29 0 56 17.5t48 48t33.5 71.5t12.5 88q0 56 -22 86t-64 30zM374 572h-83l-65 145h71l42 -85h4l75 85h78z" />
    <glyph glyph-name="uni1ECD" unicode="&#x1ecd;" horiz-adv-x="524" 
d="M217 -12q-41 0 -75 14t-58 40t-37 63t-13 83q0 70 23.5 128.5t61.5 99.5t86.5 64t98.5 23q84 0 134 -53.5t50 -146.5q0 -70 -23.5 -128t-61.5 -99.5t-86.5 -64.5t-99.5 -23zM293 416q-29 0 -56.5 -17.5t-48.5 -47.5t-33.5 -71t-12.5 -88q0 -56 22 -86.5t65 -30.5
q29 0 56 17.5t48 48t33.5 71.5t12.5 88q0 56 -22 86t-64 30zM162 -214q-23 0 -42 14.5t-19 41.5q0 29 21 49.5t51 20.5q23 0 42 -14.5t19 -41.5q0 -30 -21 -50t-51 -20z" />
    <glyph glyph-name="uni1ECF" unicode="&#x1ecf;" horiz-adv-x="524" 
d="M217 -12q-41 0 -75 14t-58 40t-37 63t-13 83q0 70 23.5 128.5t61.5 99.5t86.5 64t98.5 23q84 0 134 -53.5t50 -146.5q0 -70 -23.5 -128t-61.5 -99.5t-86.5 -64.5t-99.5 -23zM293 416q-29 0 -56.5 -17.5t-48.5 -47.5t-33.5 -71t-12.5 -88q0 -56 22 -86.5t65 -30.5
q29 0 56 17.5t48 48t33.5 71.5t12.5 88q0 56 -22 86t-64 30zM315 736q73 -2 102.5 -22t29.5 -51q0 -25 -10.5 -43.5t-29 -31.5t-43.5 -21.5t-53 -12.5l-6 46q28 8 44.5 17t16.5 28q0 15 -15.5 23.5t-56.5 11.5z" />
    <glyph glyph-name="uni1ED1" unicode="&#x1ed1;" horiz-adv-x="524" 
d="M217 -12q-41 0 -75 14t-58 40t-37 63t-13 83q0 70 23.5 128.5t61.5 99.5t86.5 64t98.5 23q84 0 134 -53.5t50 -146.5q0 -70 -23.5 -128t-61.5 -99.5t-86.5 -64.5t-99.5 -23zM293 416q-29 0 -56.5 -17.5t-48.5 -47.5t-33.5 -71t-12.5 -88q0 -56 22 -86.5t65 -30.5
q29 0 56 17.5t48 48t33.5 71.5t12.5 88q0 56 -22 86t-64 30zM313 695h82l54 -123h-64l-38 69h-4l-63 -69h-72zM529 757h84l-110 -116h-63z" />
    <glyph glyph-name="uni1ED3" unicode="&#x1ed3;" horiz-adv-x="524" 
d="M217 -12q-41 0 -75 14t-58 40t-37 63t-13 83q0 70 23.5 128.5t61.5 99.5t86.5 64t98.5 23q84 0 134 -53.5t50 -146.5q0 -70 -23.5 -128t-61.5 -99.5t-86.5 -64.5t-99.5 -23zM293 416q-29 0 -56.5 -17.5t-48.5 -47.5t-33.5 -71t-12.5 -88q0 -56 22 -86.5t65 -30.5
q29 0 56 17.5t48 48t33.5 71.5t12.5 88q0 56 -22 86t-64 30zM556 641h-63l-64 116h82zM313 695h82l54 -123h-64l-38 69h-4l-63 -69h-72z" />
    <glyph glyph-name="uni1ED5" unicode="&#x1ed5;" horiz-adv-x="524" 
d="M217 -12q-41 0 -75 14t-58 40t-37 63t-13 83q0 70 23.5 128.5t61.5 99.5t86.5 64t98.5 23q84 0 134 -53.5t50 -146.5q0 -70 -23.5 -128t-61.5 -99.5t-86.5 -64.5t-99.5 -23zM293 416q-29 0 -56.5 -17.5t-48.5 -47.5t-33.5 -71t-12.5 -88q0 -56 22 -86.5t65 -30.5
q29 0 56 17.5t48 48t33.5 71.5t12.5 88q0 56 -22 86t-64 30zM465 792q63 -3 89.5 -20.5t26.5 -44.5q0 -24 -9 -41t-25 -28.5t-38 -18.5t-47 -12l-3 39q25 8 36 17.5t11 26.5q0 14 -12.5 22t-46.5 12zM313 695h82l54 -123h-64l-38 69h-4l-63 -69h-72z" />
    <glyph glyph-name="uni1ED7" unicode="&#x1ed7;" horiz-adv-x="524" 
d="M217 -12q-41 0 -75 14t-58 40t-37 63t-13 83q0 70 23.5 128.5t61.5 99.5t86.5 64t98.5 23q84 0 134 -53.5t50 -146.5q0 -70 -23.5 -128t-61.5 -99.5t-86.5 -64.5t-99.5 -23zM293 416q-29 0 -56.5 -17.5t-48.5 -47.5t-33.5 -71t-12.5 -88q0 -56 22 -86.5t65 -30.5
q29 0 56 17.5t48 48t33.5 71.5t12.5 88q0 56 -22 86t-64 30zM459 572h-68l-46 60h-4l-65 -60h-77l103 105h97zM225 714q15 48 41 74t55 26q18 0 30.5 -6.5t23 -14.5t20 -14.5t21.5 -6.5q11 0 23 10.5t19 30.5h50q-15 -48 -41.5 -74t-55.5 -26q-18 0 -30.5 6.5t-22.5 14.5
t-19.5 14.5t-21.5 6.5q-11 0 -22.5 -10.5t-18.5 -30.5h-51z" />
    <glyph glyph-name="uni1ED9" unicode="&#x1ed9;" horiz-adv-x="524" 
d="M217 -12q-41 0 -75 14t-58 40t-37 63t-13 83q0 70 23.5 128.5t61.5 99.5t86.5 64t98.5 23q84 0 134 -53.5t50 -146.5q0 -70 -23.5 -128t-61.5 -99.5t-86.5 -64.5t-99.5 -23zM293 416q-29 0 -56.5 -17.5t-48.5 -47.5t-33.5 -71t-12.5 -88q0 -56 22 -86.5t65 -30.5
q29 0 56 17.5t48 48t33.5 71.5t12.5 88q0 56 -22 86t-64 30zM318 717h83l64 -145h-71l-41 86h-4l-76 -86h-77zM162 -214q-23 0 -42 14.5t-19 41.5q0 29 21 49.5t51 20.5q23 0 42 -14.5t19 -41.5q0 -30 -21 -50t-51 -20z" />
    <glyph glyph-name="oslash" unicode="&#xf8;" horiz-adv-x="524" 
d="M159 103q24 -30 66 -30q36 0 65.5 19.5t51 51.5t33 72.5t11.5 81.5q0 18 -3 35zM364 385q-25 33 -68 33q-35 0 -64.5 -20t-51 -52t-33.5 -72.5t-12 -81.5q0 -21 3 -39zM462 414q26 -46 26 -111q0 -71 -23.5 -129t-61.5 -99.5t-86.5 -64t-99.5 -22.5q-74 0 -125 46
l-56 -58l-36 34l62 63q-28 48 -28 115q0 70 23.5 128.5t61.5 99.5t86.5 64t98.5 23q77 0 128 -48l57 59l37 -34z" />
    <glyph glyph-name="oe" unicode="&#x153;" horiz-adv-x="805" 
d="M211 -12q-81 0 -129 54t-48 146q0 70 23 128.5t60.5 99.5t84.5 64t96 23q58 0 93.5 -28t52.5 -82q33 53 79.5 81.5t93.5 28.5q43 0 72.5 -14t48.5 -38.5t27.5 -57.5t8.5 -71q0 -32 -8.5 -62t-13.5 -42h-286q-3 -39 4.5 -67t22.5 -46t36 -26.5t46 -8.5q26 0 52.5 12
t47.5 27l39 -69q-29 -21 -72 -36.5t-96 -15.5t-91 29.5t-55 86.5q-35 -55 -85 -85.5t-104 -30.5zM287 416q-27 0 -53 -17.5t-46.5 -47.5t-33 -71t-12.5 -88q0 -56 22 -86.5t65 -30.5q28 0 54 17.5t46 48t32 71.5t12 88q0 56 -22 86t-64 30zM680 286q2 10 3 20.5t1 22.5
q0 36 -17.5 63.5t-62.5 27.5q-40 0 -75.5 -35.5t-52.5 -98.5h204z" />
    <glyph glyph-name="ohorn" unicode="&#x1a1;" horiz-adv-x="528" 
d="M229 75q29 0 56 17.5t48 48t33.5 71.5t12.5 88q0 56 -22 86t-64 30q-29 0 -56.5 -17.5t-48.5 -47.5t-33.5 -71t-12.5 -88q0 -56 22 -86.5t65 -30.5zM554 615q7 -14 9.5 -27t2.5 -27q0 -42 -29 -75t-92 -46q43 -52 43 -137q0 -70 -23.5 -128t-61.5 -99.5t-86.5 -64.5
t-99.5 -23q-41 0 -75 14t-58 40t-37 63t-13 83q0 70 23.5 128.5t61.5 99.5t86.5 64t98.5 23q51 0 92 -22q37 5 60.5 24.5t23.5 48.5q0 17 -7 34z" />
    <glyph glyph-name="uni1EDB" unicode="&#x1edb;" horiz-adv-x="528" 
d="M229 75q29 0 56 17.5t48 48t33.5 71.5t12.5 88q0 56 -22 86t-64 30q-29 0 -56.5 -17.5t-48.5 -47.5t-33.5 -71t-12.5 -88q0 -56 22 -86.5t65 -30.5zM554 615q7 -14 9.5 -27t2.5 -27q0 -42 -29 -75t-92 -46q43 -52 43 -137q0 -70 -23.5 -128t-61.5 -99.5t-86.5 -64.5
t-99.5 -23q-41 0 -75 14t-58 40t-37 63t-13 83q0 70 23.5 128.5t61.5 99.5t86.5 64t98.5 23q51 0 92 -22q37 5 60.5 24.5t23.5 48.5q0 17 -7 34zM358 717h110l-142 -145h-84z" />
    <glyph glyph-name="uni1EDD" unicode="&#x1edd;" horiz-adv-x="528" 
d="M229 75q29 0 56 17.5t48 48t33.5 71.5t12.5 88q0 56 -22 86t-64 30q-29 0 -56.5 -17.5t-48.5 -47.5t-33.5 -71t-12.5 -88q0 -56 22 -86.5t65 -30.5zM554 615q7 -14 9.5 -27t2.5 -27q0 -42 -29 -75t-92 -46q43 -52 43 -137q0 -70 -23.5 -128t-61.5 -99.5t-86.5 -64.5
t-99.5 -23q-41 0 -75 14t-58 40t-37 63t-13 83q0 70 23.5 128.5t61.5 99.5t86.5 64t98.5 23q51 0 92 -22q37 5 60.5 24.5t23.5 48.5q0 17 -7 34zM224 717h102l57 -145h-75z" />
    <glyph glyph-name="uni1EDF" unicode="&#x1edf;" horiz-adv-x="528" 
d="M229 75q29 0 56 17.5t48 48t33.5 71.5t12.5 88q0 56 -22 86t-64 30q-29 0 -56.5 -17.5t-48.5 -47.5t-33.5 -71t-12.5 -88q0 -56 22 -86.5t65 -30.5zM554 615q7 -14 9.5 -27t2.5 -27q0 -42 -29 -75t-92 -46q43 -52 43 -137q0 -70 -23.5 -128t-61.5 -99.5t-86.5 -64.5
t-99.5 -23q-41 0 -75 14t-58 40t-37 63t-13 83q0 70 23.5 128.5t61.5 99.5t86.5 64t98.5 23q51 0 92 -22q37 5 60.5 24.5t23.5 48.5q0 17 -7 34zM301 736q73 -2 102.5 -22t29.5 -51q0 -25 -10.5 -43.5t-29 -31.5t-43.5 -21.5t-53 -12.5l-6 46q28 8 44.5 17t16.5 28
q0 15 -15.5 23.5t-56.5 11.5z" />
    <glyph glyph-name="uni1EE1" unicode="&#x1ee1;" horiz-adv-x="528" 
d="M229 75q29 0 56 17.5t48 48t33.5 71.5t12.5 88q0 56 -22 86t-64 30q-29 0 -56.5 -17.5t-48.5 -47.5t-33.5 -71t-12.5 -88q0 -56 22 -86.5t65 -30.5zM554 615q7 -14 9.5 -27t2.5 -27q0 -42 -29 -75t-92 -46q43 -52 43 -137q0 -70 -23.5 -128t-61.5 -99.5t-86.5 -64.5
t-99.5 -23q-41 0 -75 14t-58 40t-37 63t-13 83q0 70 23.5 128.5t61.5 99.5t86.5 64t98.5 23q51 0 92 -22q37 5 60.5 24.5t23.5 48.5q0 17 -7 34zM174 578q16 55 44.5 85.5t61.5 30.5q22 0 36.5 -7.5t26 -17t22.5 -17t27 -7.5q22 0 42 47h58q-15 -54 -43.5 -85t-62.5 -31
q-22 0 -36.5 8t-26 17l-22.5 17t-27 8q-22 0 -42 -48h-58z" />
    <glyph glyph-name="uni1EE3" unicode="&#x1ee3;" horiz-adv-x="528" 
d="M229 75q29 0 56 17.5t48 48t33.5 71.5t12.5 88q0 56 -22 86t-64 30q-29 0 -56.5 -17.5t-48.5 -47.5t-33.5 -71t-12.5 -88q0 -56 22 -86.5t65 -30.5zM554 615q7 -14 9.5 -27t2.5 -27q0 -42 -29 -75t-92 -46q43 -52 43 -137q0 -70 -23.5 -128t-61.5 -99.5t-86.5 -64.5
t-99.5 -23q-41 0 -75 14t-58 40t-37 63t-13 83q0 70 23.5 128.5t61.5 99.5t86.5 64t98.5 23q51 0 92 -22q37 5 60.5 24.5t23.5 48.5q0 17 -7 34zM161 -214q-23 0 -42 14.5t-19 41.5q0 29 21 49.5t51 20.5q23 0 42 -14.5t19 -41.5q0 -30 -21 -50t-51 -20z" />
    <glyph glyph-name="uni01EB" unicode="&#x1eb;" horiz-adv-x="524" 
d="M105 -138q0 23 9.5 44t22.5 38t27 29.5t24 18.5q-71 10 -112.5 59.5t-41.5 136.5q0 70 23.5 128.5t61.5 99.5t86.5 64t98.5 23q40 0 73.5 -13.5t58 -39t38.5 -62.5t14 -85q0 -61 -16 -110t-43.5 -86.5t-65 -65t-80.5 -45.5q-51 -21 -74.5 -51t-23.5 -53q0 -16 10.5 -24.5
t25.5 -8.5q16 0 35 11l19 -48q-19 -13 -44 -21.5t-46 -8.5q-35 0 -57.5 17.5t-22.5 52.5zM293 416q-29 0 -56.5 -17.5t-48.5 -47.5t-33.5 -71t-12.5 -88q0 -56 22 -86.5t65 -30.5q29 0 56 17.5t48 48t33.5 71.5t12.5 88q0 56 -22 86t-64 30z" />
    <glyph glyph-name="racute" unicode="&#x155;" horiz-adv-x="363" 
d="M120 491h87l-9 -95h4q29 46 68 76.5t84 30.5q29 0 49 -9l-36 -94q-9 5 -21 6.5t-25 1.5q-35 0 -69 -27t-64 -84l-58 -297h-108zM312 717h110l-142 -145h-84z" />
    <glyph glyph-name="uni0157" unicode="&#x157;" horiz-adv-x="363" 
d="M120 491h87l-9 -95h4q29 46 68 76.5t84 30.5q29 0 49 -9l-36 -94q-9 5 -21 6.5t-25 1.5q-35 0 -69 -27t-64 -84l-58 -297h-108zM45 -42q40 -8 63 -24t23 -46q0 -28 -13.5 -46.5t-36.5 -30t-53 -17.5t-63 -8l-4 45q45 5 68.5 16.5t23.5 34.5q0 14 -10.5 22t-26.5 13z" />
    <glyph glyph-name="rcaron" unicode="&#x159;" horiz-adv-x="363" 
d="M120 491h87l-9 -95h4q29 46 68 76.5t84 30.5q29 0 49 -9l-36 -94q-9 5 -21 6.5t-25 1.5q-35 0 -69 -27t-64 -84l-58 -297h-108zM314 572h-83l-65 145h71l42 -85h4l75 85h78z" />
    <glyph glyph-name="uni1E5B" unicode="&#x1e5b;" horiz-adv-x="363" 
d="M120 491h87l-9 -95h4q29 46 68 76.5t84 30.5q29 0 49 -9l-36 -94q-9 5 -21 6.5t-25 1.5q-35 0 -69 -27t-64 -84l-58 -297h-108zM46 -214q-23 0 -42 14.5t-19 41.5q0 29 21 49.5t51 20.5q23 0 42 -14.5t19 -41.5q0 -30 -21 -50t-51 -20z" />
    <glyph glyph-name="uni1E5D" unicode="&#x1e5d;" horiz-adv-x="363" 
d="M120 491h87l-9 -95h4q29 46 68 76.5t84 30.5q29 0 49 -9l-36 -94q-9 5 -21 6.5t-25 1.5q-35 0 -69 -27t-64 -84l-58 -297h-108zM164 668h249l-13 -71h-250zM46 -214q-23 0 -42 14.5t-19 41.5q0 29 21 49.5t51 20.5q23 0 42 -14.5t19 -41.5q0 -30 -21 -50t-51 -20z" />
    <glyph glyph-name="uni1E5F" unicode="&#x1e5f;" horiz-adv-x="363" 
d="M120 491h87l-9 -95h4q29 46 68 76.5t84 30.5q29 0 49 -9l-36 -94q-9 5 -21 6.5t-25 1.5q-35 0 -69 -27t-64 -84l-58 -297h-108zM-64 -100h249l-13 -71h-250z" />
    <glyph glyph-name="sacute" unicode="&#x15b;" horiz-adv-x="413" 
d="M58 134q24 -32 53.5 -49t62.5 -17q35 0 60.5 18.5t25.5 45.5q0 23 -21 39.5t-67 42.5q-49 27 -77 59t-28 77q0 33 14 61.5t38.5 48.5t57 31.5t69.5 11.5q48 0 86.5 -20t67.5 -50l-60 -57q-19 19 -42 32.5t-52 13.5q-34 0 -56 -18t-22 -44q0 -14 7 -24t19 -19t27 -17
l31 -17q55 -29 82 -61t27 -77q0 -36 -14.5 -65t-40.5 -49.5t-62 -31.5t-78 -11q-23 0 -47.5 7t-47.5 19t-43 29.5t-34 38.5zM313 717h110l-142 -145h-84z" />
    <glyph glyph-name="scircumflex" unicode="&#x15d;" horiz-adv-x="413" 
d="M58 134q24 -32 53.5 -49t62.5 -17q35 0 60.5 18.5t25.5 45.5q0 23 -21 39.5t-67 42.5q-49 27 -77 59t-28 77q0 33 14 61.5t38.5 48.5t57 31.5t69.5 11.5q48 0 86.5 -20t67.5 -50l-60 -57q-19 19 -42 32.5t-52 13.5q-34 0 -56 -18t-22 -44q0 -14 7 -24t19 -19t27 -17
l31 -17q55 -29 82 -61t27 -77q0 -36 -14.5 -65t-40.5 -49.5t-62 -31.5t-78 -11q-23 0 -47.5 7t-47.5 19t-43 29.5t-34 38.5zM259 717h83l64 -145h-71l-41 86h-4l-76 -86h-77z" />
    <glyph glyph-name="scaron" unicode="&#x161;" horiz-adv-x="413" 
d="M58 134q24 -32 53.5 -49t62.5 -17q35 0 60.5 18.5t25.5 45.5q0 23 -21 39.5t-67 42.5q-49 27 -77 59t-28 77q0 33 14 61.5t38.5 48.5t57 31.5t69.5 11.5q48 0 86.5 -20t67.5 -50l-60 -57q-19 19 -42 32.5t-52 13.5q-34 0 -56 -18t-22 -44q0 -14 7 -24t19 -19t27 -17
l31 -17q55 -29 82 -61t27 -77q0 -36 -14.5 -65t-40.5 -49.5t-62 -31.5t-78 -11q-23 0 -47.5 7t-47.5 19t-43 29.5t-34 38.5zM315 572h-83l-65 145h71l42 -85h4l75 85h78z" />
    <glyph glyph-name="uni015F" unicode="&#x15f;" horiz-adv-x="413" 
d="M58 134q24 -32 53.5 -49t62.5 -17q35 0 60.5 18.5t25.5 45.5q0 23 -21 39.5t-67 42.5q-49 27 -77 59t-28 77q0 33 14 61.5t38.5 48.5t57 31.5t69.5 11.5q48 0 86.5 -20t67.5 -50l-60 -57q-19 19 -42 32.5t-52 13.5q-34 0 -56 -18t-22 -44q0 -14 7 -24t19 -19t27 -17
l31 -17q55 -29 82 -61t27 -77q0 -36 -14.5 -65t-40.5 -49.5t-62 -31.5t-78 -11q-23 0 -47.5 7t-47.5 19t-43 29.5t-34 38.5zM141 3h66l-34 -52q19 -7 32 -21t13 -37q0 -27 -14 -46.5t-37.5 -32.5t-54.5 -20.5t-64 -9.5l-4 45q39 5 65.5 18t26.5 37q0 14 -10.5 23.5
t-38.5 17.5z" />
    <glyph glyph-name="uni0219" unicode="&#x219;" horiz-adv-x="413" 
d="M58 134q24 -32 53.5 -49t62.5 -17q35 0 60.5 18.5t25.5 45.5q0 23 -21 39.5t-67 42.5q-49 27 -77 59t-28 77q0 33 14 61.5t38.5 48.5t57 31.5t69.5 11.5q48 0 86.5 -20t67.5 -50l-60 -57q-19 19 -42 32.5t-52 13.5q-34 0 -56 -18t-22 -44q0 -14 7 -24t19 -19t27 -17
l31 -17q55 -29 82 -61t27 -77q0 -36 -14.5 -65t-40.5 -49.5t-62 -31.5t-78 -11q-23 0 -47.5 7t-47.5 19t-43 29.5t-34 38.5zM141 -42q40 -8 63 -24t23 -46q0 -28 -13.5 -46.5t-36.5 -30t-53 -17.5t-63 -8l-4 45q45 5 68.5 16.5t23.5 34.5q0 14 -10.5 22t-26.5 13z" />
    <glyph glyph-name="uni1E61" unicode="&#x1e61;" horiz-adv-x="413" 
d="M58 134q24 -32 53.5 -49t62.5 -17q35 0 60.5 18.5t25.5 45.5q0 23 -21 39.5t-67 42.5q-49 27 -77 59t-28 77q0 33 14 61.5t38.5 48.5t57 31.5t69.5 11.5q48 0 86.5 -20t67.5 -50l-60 -57q-19 19 -42 32.5t-52 13.5q-34 0 -56 -18t-22 -44q0 -14 7 -24t19 -19t27 -17
l31 -17q55 -29 82 -61t27 -77q0 -36 -14.5 -65t-40.5 -49.5t-62 -31.5t-78 -11q-23 0 -47.5 7t-47.5 19t-43 29.5t-34 38.5zM279 578q-24 0 -43 14.5t-19 41.5q0 29 21.5 49.5t50.5 20.5q24 0 43 -14.5t19 -41.5q0 -30 -21 -50t-51 -20z" />
    <glyph glyph-name="uni1E63" unicode="&#x1e63;" horiz-adv-x="413" 
d="M58 134q24 -32 53.5 -49t62.5 -17q35 0 60.5 18.5t25.5 45.5q0 23 -21 39.5t-67 42.5q-49 27 -77 59t-28 77q0 33 14 61.5t38.5 48.5t57 31.5t69.5 11.5q48 0 86.5 -20t67.5 -50l-60 -57q-19 19 -42 32.5t-52 13.5q-34 0 -56 -18t-22 -44q0 -14 7 -24t19 -19t27 -17
l31 -17q55 -29 82 -61t27 -77q0 -36 -14.5 -65t-40.5 -49.5t-62 -31.5t-78 -11q-23 0 -47.5 7t-47.5 19t-43 29.5t-34 38.5zM142 -214q-23 0 -42 14.5t-19 41.5q0 29 21 49.5t51 20.5q23 0 42 -14.5t19 -41.5q0 -30 -21 -50t-51 -20z" />
    <glyph glyph-name="germandbls" unicode="&#xdf;" horiz-adv-x="583" 
d="M126 515q9 42 28 79t47.5 64.5t66.5 43.5t85 16q33 0 62.5 -8.5t52.5 -25.5t36.5 -43.5t13.5 -62.5q0 -45 -19 -74t-42.5 -51.5t-42.5 -42.5t-19 -46q0 -17 10 -31t25.5 -27l33.5 -27.5t33.5 -32t25.5 -40t10 -52.5q0 -35 -13.5 -65t-37 -52.5t-56 -35.5t-69.5 -13
q-38 0 -75 11.5t-69 35.5l46 71q22 -16 45.5 -26.5t51.5 -10.5q33 0 55 20.5t22 52.5q0 20 -10.5 36t-26.5 30t-34.5 27.5t-34.5 29.5t-26.5 35t-10.5 45q0 37 19.5 62t42.5 47.5t42.5 47.5t19.5 61q0 31 -15.5 50t-50.5 19q-23 0 -42 -11t-34.5 -29.5t-26.5 -44t-17 -54.5
l-98 -493h-108z" />
    <glyph glyph-name="tcaron" unicode="&#x165;" horiz-adv-x="346" 
d="M122 406h-69l16 80l75 5l39 132h90l-26 -132h118l-17 -85h-120l-50 -244q-3 -18 -3 -35q0 -27 13 -40.5t44 -13.5q13 0 24 4t22 9l20 -76q-18 -8 -44 -15t-60 -7q-69 0 -98.5 34.5t-29.5 85.5q0 15 2 29l4 29zM322 548l40 217h71l-13 -63l-49 -154h-49z" />
    <glyph glyph-name="uni0163" unicode="&#x163;" horiz-adv-x="346" 
d="M122 406h-69l16 80l75 5l39 132h90l-26 -132h118l-17 -85h-120l-50 -244q-3 -18 -3 -35q0 -27 13 -40.5t44 -13.5q13 0 24 4t22 9l20 -76q-18 -8 -44 -15t-60 -7q-69 0 -98.5 34.5t-29.5 85.5q0 15 2 29l4 29zM148 3h66l-34 -52q19 -7 32 -21t13 -37q0 -27 -14 -46.5
t-37.5 -32.5t-54.5 -20.5t-64 -9.5l-4 45q39 5 65.5 18t26.5 37q0 14 -10.5 23.5t-38.5 17.5z" />
    <glyph glyph-name="uni021B" unicode="&#x21b;" horiz-adv-x="346" 
d="M122 406h-69l16 80l75 5l39 132h90l-26 -132h118l-17 -85h-120l-50 -244q-3 -18 -3 -35q0 -27 13 -40.5t44 -13.5q13 0 24 4t22 9l20 -76q-18 -8 -44 -15t-60 -7q-69 0 -98.5 34.5t-29.5 85.5q0 15 2 29l4 29zM134 -42q40 -8 63 -24t23 -46q0 -28 -13.5 -46.5t-36.5 -30
t-53 -17.5t-63 -8l-4 45q45 5 68.5 16.5t23.5 34.5q0 14 -10.5 22t-26.5 13z" />
    <glyph glyph-name="uni1E6D" unicode="&#x1e6d;" horiz-adv-x="346" 
d="M122 406h-69l16 80l75 5l39 132h90l-26 -132h118l-17 -85h-120l-50 -244q-3 -18 -3 -35q0 -27 13 -40.5t44 -13.5q13 0 24 4t22 9l20 -76q-18 -8 -44 -15t-60 -7q-69 0 -98.5 34.5t-29.5 85.5q0 15 2 29l4 29zM135 -214q-23 0 -42 14.5t-19 41.5q0 29 21 49.5t51 20.5
q23 0 42 -14.5t19 -41.5q0 -30 -21 -50t-51 -20z" />
    <glyph glyph-name="uni1E6F" unicode="&#x1e6f;" horiz-adv-x="346" 
d="M122 406h-69l16 80l75 5l39 132h90l-26 -132h118l-17 -85h-120l-50 -244q-3 -18 -3 -35q0 -27 13 -40.5t44 -13.5q13 0 24 4t22 9l20 -76q-18 -8 -44 -15t-60 -7q-69 0 -98.5 34.5t-29.5 85.5q0 15 2 29l4 29zM25 -100h249l-13 -71h-250z" />
    <glyph glyph-name="uni1E97" unicode="&#x1e97;" horiz-adv-x="346" 
d="M122 406h-69l16 80l75 5l39 132h90l-26 -132h118l-17 -85h-120l-50 -244q-3 -18 -3 -35q0 -27 13 -40.5t44 -13.5q13 0 24 4t22 9l20 -76q-18 -8 -44 -15t-60 -7q-69 0 -98.5 34.5t-29.5 85.5q0 15 2 29l4 29zM152 718q-22 0 -36 13t-14 37q0 26 18.5 45.5t44.5 19.5
q21 0 35.5 -13.5t14.5 -37.5q0 -27 -18.5 -45.5t-44.5 -18.5zM330 718q-22 0 -36 13t-14 37q0 26 18.5 45.5t44.5 19.5q22 0 36 -13.5t14 -37.5q0 -27 -18.5 -45.5t-44.5 -18.5z" />
    <glyph glyph-name="ugrave" unicode="&#xf9;" horiz-adv-x="537" 
d="M415 0h-87l4 70h-4q-37 -33 -78 -57.5t-86 -24.5q-62 0 -89.5 32.5t-27.5 91.5q0 17 2 33.5t6 35.5l62 310h107l-59 -296q-4 -17 -6 -29t-2 -23q0 -63 61 -63q49 0 121 76l66 335h107zM232 717h102l57 -145h-75z" />
    <glyph glyph-name="uacute" unicode="&#xfa;" horiz-adv-x="537" 
d="M415 0h-87l4 70h-4q-37 -33 -78 -57.5t-86 -24.5q-62 0 -89.5 32.5t-27.5 91.5q0 17 2 33.5t6 35.5l62 310h107l-59 -296q-4 -17 -6 -29t-2 -23q0 -63 61 -63q49 0 121 76l66 335h107zM366 717h110l-142 -145h-84z" />
    <glyph glyph-name="ucircumflex" unicode="&#xfb;" horiz-adv-x="537" 
d="M415 0h-87l4 70h-4q-37 -33 -78 -57.5t-86 -24.5q-62 0 -89.5 32.5t-27.5 91.5q0 17 2 33.5t6 35.5l62 310h107l-59 -296q-4 -17 -6 -29t-2 -23q0 -63 61 -63q49 0 121 76l66 335h107zM312 717h83l64 -145h-71l-41 86h-4l-76 -86h-77z" />
    <glyph glyph-name="utilde" unicode="&#x169;" horiz-adv-x="537" 
d="M415 0h-87l4 70h-4q-37 -33 -78 -57.5t-86 -24.5q-62 0 -89.5 32.5t-27.5 91.5q0 17 2 33.5t6 35.5l62 310h107l-59 -296q-4 -17 -6 -29t-2 -23q0 -63 61 -63q49 0 121 76l66 335h107zM182 578q16 55 44.5 85.5t61.5 30.5q22 0 36.5 -7.5t26 -17t22.5 -17t27 -7.5
q22 0 42 47h58q-15 -54 -43.5 -85t-62.5 -31q-22 0 -36.5 8t-26 17l-22.5 17t-27 8q-22 0 -42 -48h-58z" />
    <glyph glyph-name="udieresis" unicode="&#xfc;" horiz-adv-x="537" 
d="M415 0h-87l4 70h-4q-37 -33 -78 -57.5t-86 -24.5q-62 0 -89.5 32.5t-27.5 91.5q0 17 2 33.5t6 35.5l62 310h107l-59 -296q-4 -17 -6 -29t-2 -23q0 -63 61 -63q49 0 121 76l66 335h107zM242 580q-22 0 -36 13t-14 37q0 26 18.5 45.5t44.5 19.5q21 0 35.5 -13.5t14.5 -37.5
q0 -27 -18.5 -45.5t-44.5 -18.5zM420 580q-22 0 -36 13t-14 37q0 26 18.5 45.5t44.5 19.5q22 0 36 -13.5t14 -37.5q0 -27 -18.5 -45.5t-44.5 -18.5z" />
    <glyph glyph-name="umacron" unicode="&#x16b;" horiz-adv-x="537" 
d="M415 0h-87l4 70h-4q-37 -33 -78 -57.5t-86 -24.5q-62 0 -89.5 32.5t-27.5 91.5q0 17 2 33.5t6 35.5l62 310h107l-59 -296q-4 -17 -6 -29t-2 -23q0 -63 61 -63q49 0 121 76l66 335h107zM218 668h249l-13 -71h-250z" />
    <glyph glyph-name="ubreve" unicode="&#x16d;" horiz-adv-x="537" 
d="M415 0h-87l4 70h-4q-37 -33 -78 -57.5t-86 -24.5q-62 0 -89.5 32.5t-27.5 91.5q0 17 2 33.5t6 35.5l62 310h107l-59 -296q-4 -17 -6 -29t-2 -23q0 -63 61 -63q49 0 121 76l66 335h107zM325 575q-31 0 -52 11t-33 29.5t-15.5 42t1.5 48.5h59q-3 -31 8.5 -51t41.5 -20
q31 0 51 20.5t30 50.5h62q-7 -25 -19.5 -48.5t-31.5 -42t-44.5 -29.5t-57.5 -11z" />
    <glyph glyph-name="uring" unicode="&#x16f;" horiz-adv-x="537" 
d="M415 0h-87l4 70h-4q-37 -33 -78 -57.5t-86 -24.5q-62 0 -89.5 32.5t-27.5 91.5q0 17 2 33.5t6 35.5l62 310h107l-59 -296q-4 -17 -6 -29t-2 -23q0 -63 61 -63q49 0 121 76l66 335h107zM332 543q-40 0 -66 22t-26 64q0 22 8 42t22.5 34t33.5 22.5t42 8.5q40 0 65.5 -22
t25.5 -63q0 -23 -8 -42.5t-22.5 -34t-33.5 -23t-41 -8.5zM344 691q-20 0 -34 -17.5t-14 -41.5q0 -19 9.5 -31.5t28.5 -12.5q20 0 34 17.5t14 41.5q0 19 -9.5 31.5t-28.5 12.5z" />
    <glyph glyph-name="uhungarumlaut" unicode="&#x171;" horiz-adv-x="537" 
d="M415 0h-87l4 70h-4q-37 -33 -78 -57.5t-86 -24.5q-62 0 -89.5 32.5t-27.5 91.5q0 17 2 33.5t6 35.5l62 310h107l-59 -296q-4 -17 -6 -29t-2 -23q0 -63 61 -63q49 0 121 76l66 335h107zM314 718h91l-121 -146h-71zM467 718h91l-121 -146h-71z" />
    <glyph glyph-name="uni01D4" unicode="&#x1d4;" horiz-adv-x="537" 
d="M415 0h-87l4 70h-4q-37 -33 -78 -57.5t-86 -24.5q-62 0 -89.5 32.5t-27.5 91.5q0 17 2 33.5t6 35.5l62 310h107l-59 -296q-4 -17 -6 -29t-2 -23q0 -63 61 -63q49 0 121 76l66 335h107zM368 572h-83l-65 145h71l42 -85h4l75 85h78z" />
    <glyph glyph-name="uni01D6" unicode="&#x1d6;" horiz-adv-x="537" 
d="M415 0h-87l4 70h-4q-37 -33 -78 -57.5t-86 -24.5q-62 0 -89.5 32.5t-27.5 91.5q0 17 2 33.5t6 35.5l62 310h107l-59 -296q-4 -17 -6 -29t-2 -23q0 -63 61 -63q49 0 121 76l66 335h107zM250 806h249l-12 -55h-249zM242 580q-20 0 -31.5 12.5t-11.5 30.5q0 26 17 43.5
t40 17.5q20 0 32 -11.5t12 -30.5q0 -26 -16.5 -44t-41.5 -18zM419 580q-19 0 -31 12.5t-12 30.5q0 26 17 43.5t41 17.5q19 0 30.5 -11.5t11.5 -30.5q0 -26 -16.5 -44t-40.5 -18z" />
    <glyph glyph-name="uni01D8" unicode="&#x1d8;" horiz-adv-x="537" 
d="M415 0h-87l4 70h-4q-37 -33 -78 -57.5t-86 -24.5q-62 0 -89.5 32.5t-27.5 91.5q0 17 2 33.5t6 35.5l62 310h107l-59 -296q-4 -17 -6 -29t-2 -23q0 -63 61 -63q49 0 121 76l66 335h107zM398 831h99l-122 -105h-76zM242 580q-20 0 -31.5 12.5t-11.5 30.5q0 26 17 43.5
t40 17.5q20 0 32 -11.5t12 -30.5q0 -26 -16.5 -44t-41.5 -18zM419 580q-19 0 -31 12.5t-12 30.5q0 26 17 43.5t41 17.5q19 0 30.5 -11.5t11.5 -30.5q0 -26 -16.5 -44t-40.5 -18z" />
    <glyph glyph-name="uni01DA" unicode="&#x1da;" horiz-adv-x="537" 
d="M415 0h-87l4 70h-4q-37 -33 -78 -57.5t-86 -24.5q-62 0 -89.5 32.5t-27.5 91.5q0 17 2 33.5t6 35.5l62 310h107l-59 -296q-4 -17 -6 -29t-2 -23q0 -63 61 -63q49 0 121 76l66 335h107zM248 831h70l45 -60h4l65 60h74l-101 -105h-94zM242 580q-20 0 -31.5 12.5t-11.5 30.5
q0 26 17 43.5t40 17.5q20 0 32 -11.5t12 -30.5q0 -26 -16.5 -44t-41.5 -18zM419 580q-19 0 -31 12.5t-12 30.5q0 26 17 43.5t41 17.5q19 0 30.5 -11.5t11.5 -30.5q0 -26 -16.5 -44t-40.5 -18z" />
    <glyph glyph-name="uni01DC" unicode="&#x1dc;" horiz-adv-x="537" 
d="M415 0h-87l4 70h-4q-37 -33 -78 -57.5t-86 -24.5q-62 0 -89.5 32.5t-27.5 91.5q0 17 2 33.5t6 35.5l62 310h107l-59 -296q-4 -17 -6 -29t-2 -23q0 -63 61 -63q49 0 121 76l66 335h107zM257 831h94l61 -105h-70zM242 580q-20 0 -31.5 12.5t-11.5 30.5q0 26 17 43.5
t40 17.5q20 0 32 -11.5t12 -30.5q0 -26 -16.5 -44t-41.5 -18zM419 580q-19 0 -31 12.5t-12 30.5q0 26 17 43.5t41 17.5q19 0 30.5 -11.5t11.5 -30.5q0 -26 -16.5 -44t-40.5 -18z" />
    <glyph glyph-name="uni1EE5" unicode="&#x1ee5;" horiz-adv-x="537" 
d="M415 0h-87l4 70h-4q-37 -33 -78 -57.5t-86 -24.5q-62 0 -89.5 32.5t-27.5 91.5q0 17 2 33.5t6 35.5l62 310h107l-59 -296q-4 -17 -6 -29t-2 -23q0 -63 61 -63q49 0 121 76l66 335h107zM212 -219q-23 0 -42 14.5t-19 41.5q0 29 21 49.5t51 20.5q23 0 42 -14.5t19 -41.5
q0 -30 -21 -50t-51 -20z" />
    <glyph glyph-name="uni1EE7" unicode="&#x1ee7;" horiz-adv-x="537" 
d="M415 0h-87l4 70h-4q-37 -33 -78 -57.5t-86 -24.5q-62 0 -89.5 32.5t-27.5 91.5q0 17 2 33.5t6 35.5l62 310h107l-59 -296q-4 -17 -6 -29t-2 -23q0 -63 61 -63q49 0 121 76l66 335h107zM309 736q73 -2 102.5 -22t29.5 -51q0 -25 -10.5 -43.5t-29 -31.5t-43.5 -21.5
t-53 -12.5l-6 46q28 8 44.5 17t16.5 28q0 15 -15.5 23.5t-56.5 11.5z" />
    <glyph glyph-name="uogonek" unicode="&#x173;" horiz-adv-x="537" 
d="M415 0q-50 -20 -79 -48t-29 -60q0 -16 10.5 -24.5t25.5 -8.5q16 0 35 11l19 -48q-19 -13 -44 -21.5t-46 -8.5q-35 0 -57.5 17.5t-22.5 52.5q0 23 10 44.5t25 40t32.5 33t33.5 24.5l4 66h-4q-37 -33 -78 -57.5t-86 -24.5q-62 0 -89.5 32.5t-27.5 91.5q0 17 2 33.5t6 35.5
l62 310h107l-59 -296q-4 -17 -6 -29t-2 -23q0 -63 61 -63q49 0 121 76l66 335h107z" />
    <glyph glyph-name="uhorn" unicode="&#x1b0;" horiz-adv-x="555" 
d="M607 625q11 -26 11 -54q0 -45 -31 -76t-83 -45l-89 -450h-87l4 70h-4q-37 -33 -78 -57.5t-86 -24.5q-62 0 -89.5 32.5t-27.5 91.5q0 17 2 33.5t6 35.5l62 310h107l-59 -296q-4 -17 -6 -29t-2 -23q0 -63 61 -63q49 0 121 76l66 335h44q35 5 59 24.5t24 48.5q0 16 -6 34z
" />
    <glyph glyph-name="uni1EE9" unicode="&#x1ee9;" horiz-adv-x="555" 
d="M607 625q11 -26 11 -54q0 -45 -31 -76t-83 -45l-89 -450h-87l4 70h-4q-37 -33 -78 -57.5t-86 -24.5q-62 0 -89.5 32.5t-27.5 91.5q0 17 2 33.5t6 35.5l62 310h107l-59 -296q-4 -17 -6 -29t-2 -23q0 -63 61 -63q49 0 121 76l66 335h44q35 5 59 24.5t24 48.5q0 16 -6 34z
M366 717h110l-142 -145h-84z" />
    <glyph glyph-name="uni1EEB" unicode="&#x1eeb;" horiz-adv-x="555" 
d="M607 625q11 -26 11 -54q0 -45 -31 -76t-83 -45l-89 -450h-87l4 70h-4q-37 -33 -78 -57.5t-86 -24.5q-62 0 -89.5 32.5t-27.5 91.5q0 17 2 33.5t6 35.5l62 310h107l-59 -296q-4 -17 -6 -29t-2 -23q0 -63 61 -63q49 0 121 76l66 335h44q35 5 59 24.5t24 48.5q0 16 -6 34z
M232 717h102l57 -145h-75z" />
    <glyph glyph-name="uni1EED" unicode="&#x1eed;" horiz-adv-x="555" 
d="M607 625q11 -26 11 -54q0 -45 -31 -76t-83 -45l-89 -450h-87l4 70h-4q-37 -33 -78 -57.5t-86 -24.5q-62 0 -89.5 32.5t-27.5 91.5q0 17 2 33.5t6 35.5l62 310h107l-59 -296q-4 -17 -6 -29t-2 -23q0 -63 61 -63q49 0 121 76l66 335h44q35 5 59 24.5t24 48.5q0 16 -6 34z
M309 736q73 -2 102.5 -22t29.5 -51q0 -25 -10.5 -43.5t-29 -31.5t-43.5 -21.5t-53 -12.5l-6 46q28 8 44.5 17t16.5 28q0 15 -15.5 23.5t-56.5 11.5z" />
    <glyph glyph-name="uni1EEF" unicode="&#x1eef;" horiz-adv-x="555" 
d="M607 625q11 -26 11 -54q0 -45 -31 -76t-83 -45l-89 -450h-87l4 70h-4q-37 -33 -78 -57.5t-86 -24.5q-62 0 -89.5 32.5t-27.5 91.5q0 17 2 33.5t6 35.5l62 310h107l-59 -296q-4 -17 -6 -29t-2 -23q0 -63 61 -63q49 0 121 76l66 335h44q35 5 59 24.5t24 48.5q0 16 -6 34z
M182 578q16 55 44.5 85.5t61.5 30.5q22 0 36.5 -7.5t26 -17t22.5 -17t27 -7.5q22 0 42 47h58q-15 -54 -43.5 -85t-62.5 -31q-22 0 -36.5 8t-26 17l-22.5 17t-27 8q-22 0 -42 -48h-58z" />
    <glyph glyph-name="uni1EF1" unicode="&#x1ef1;" horiz-adv-x="555" 
d="M607 625q11 -26 11 -54q0 -45 -31 -76t-83 -45l-89 -450h-87l4 70h-4q-37 -33 -78 -57.5t-86 -24.5q-62 0 -89.5 32.5t-27.5 91.5q0 17 2 33.5t6 35.5l62 310h107l-59 -296q-4 -17 -6 -29t-2 -23q0 -63 61 -63q49 0 121 76l66 335h44q35 5 59 24.5t24 48.5q0 16 -6 34z
M211 -219q-23 0 -42 14.5t-19 41.5q0 29 21 49.5t51 20.5q23 0 42 -14.5t19 -41.5q0 -30 -21 -50t-51 -20z" />
    <glyph glyph-name="wgrave" unicode="&#x1e81;" horiz-adv-x="728" 
d="M71 491h106l8 -263q1 -35 0 -70t-1 -71h4l27.5 71t29.5 70l114 263h98l13 -263q1 -35 1 -70t1 -71h4l26.5 71t27.5 70l109 263h100l-216 -491h-128l-9 236q0 35 -0.5 71t-0.5 74h-4l-27.5 -74l-27.5 -71l-101 -236h-125zM331 717h102l57 -145h-75z" />
    <glyph glyph-name="wacute" unicode="&#x1e83;" horiz-adv-x="728" 
d="M71 491h106l8 -263q1 -35 0 -70t-1 -71h4l27.5 71t29.5 70l114 263h98l13 -263q1 -35 1 -70t1 -71h4l26.5 71t27.5 70l109 263h100l-216 -491h-128l-9 236q0 35 -0.5 71t-0.5 74h-4l-27.5 -74l-27.5 -71l-101 -236h-125zM465 717h110l-142 -145h-84z" />
    <glyph glyph-name="wcircumflex" unicode="&#x175;" horiz-adv-x="728" 
d="M71 491h106l8 -263q1 -35 0 -70t-1 -71h4l27.5 71t29.5 70l114 263h98l13 -263q1 -35 1 -70t1 -71h4l26.5 71t27.5 70l109 263h100l-216 -491h-128l-9 236q0 35 -0.5 71t-0.5 74h-4l-27.5 -74l-27.5 -71l-101 -236h-125zM411 717h83l64 -145h-71l-41 86h-4l-76 -86h-77z
" />
    <glyph glyph-name="wdieresis" unicode="&#x1e85;" horiz-adv-x="728" 
d="M71 491h106l8 -263q1 -35 0 -70t-1 -71h4l27.5 71t29.5 70l114 263h98l13 -263q1 -35 1 -70t1 -71h4l26.5 71t27.5 70l109 263h100l-216 -491h-128l-9 236q0 35 -0.5 71t-0.5 74h-4l-27.5 -74l-27.5 -71l-101 -236h-125zM341 580q-22 0 -36 13t-14 37q0 26 18.5 45.5
t44.5 19.5q21 0 35.5 -13.5t14.5 -37.5q0 -27 -18.5 -45.5t-44.5 -18.5zM519 580q-22 0 -36 13t-14 37q0 26 18.5 45.5t44.5 19.5q22 0 36 -13.5t14 -37.5q0 -27 -18.5 -45.5t-44.5 -18.5z" />
    <glyph glyph-name="ygrave" unicode="&#x1ef3;" horiz-adv-x="474" 
d="M-14 -106q17 -10 36 -10q32 0 61 24.5t49 66.5l15 30l-85 486h107l31 -248q4 -33 7 -72.5t5 -74.5h4l34.5 73.5l34.5 73.5l122 248h104l-276 -517q-23 -40 -46.5 -72.5t-49.5 -55.5t-56.5 -35.5t-67.5 -12.5q-12 0 -30.5 5t-32.5 13l34 78v0zM194 717h102l57 -145h-75z
" />
    <glyph glyph-name="yacute" unicode="&#xfd;" horiz-adv-x="474" 
d="M-14 -106q17 -10 36 -10q32 0 61 24.5t49 66.5l15 30l-85 486h107l31 -248q4 -33 7 -72.5t5 -74.5h4l34.5 73.5l34.5 73.5l122 248h104l-276 -517q-23 -40 -46.5 -72.5t-49.5 -55.5t-56.5 -35.5t-67.5 -12.5q-12 0 -30.5 5t-32.5 13l34 78v0zM328 717h110l-142 -145h-84z
" />
    <glyph glyph-name="ycircumflex" unicode="&#x177;" horiz-adv-x="474" 
d="M-14 -106q17 -10 36 -10q32 0 61 24.5t49 66.5l15 30l-85 486h107l31 -248q4 -33 7 -72.5t5 -74.5h4l34.5 73.5l34.5 73.5l122 248h104l-276 -517q-23 -40 -46.5 -72.5t-49.5 -55.5t-56.5 -35.5t-67.5 -12.5q-12 0 -30.5 5t-32.5 13l34 78v0zM274 717h83l64 -145h-71
l-41 86h-4l-76 -86h-77z" />
    <glyph glyph-name="ydieresis" unicode="&#xff;" horiz-adv-x="474" 
d="M-14 -106q17 -10 36 -10q32 0 61 24.5t49 66.5l15 30l-85 486h107l31 -248q4 -33 7 -72.5t5 -74.5h4l34.5 73.5l34.5 73.5l122 248h104l-276 -517q-23 -40 -46.5 -72.5t-49.5 -55.5t-56.5 -35.5t-67.5 -12.5q-12 0 -30.5 5t-32.5 13l34 78v0zM204 580q-22 0 -36 13
t-14 37q0 26 18.5 45.5t44.5 19.5q21 0 35.5 -13.5t14.5 -37.5q0 -27 -18.5 -45.5t-44.5 -18.5zM382 580q-22 0 -36 13t-14 37q0 26 18.5 45.5t44.5 19.5q22 0 36 -13.5t14 -37.5q0 -27 -18.5 -45.5t-44.5 -18.5z" />
    <glyph glyph-name="uni1E8F" unicode="&#x1e8f;" horiz-adv-x="474" 
d="M-14 -106q17 -10 36 -10q32 0 61 24.5t49 66.5l15 30l-85 486h107l31 -248q4 -33 7 -72.5t5 -74.5h4l34.5 73.5l34.5 73.5l122 248h104l-276 -517q-23 -40 -46.5 -72.5t-49.5 -55.5t-56.5 -35.5t-67.5 -12.5q-12 0 -30.5 5t-32.5 13l34 78v0zM294 578q-24 0 -43 14.5
t-19 41.5q0 29 21.5 49.5t50.5 20.5q24 0 43 -14.5t19 -41.5q0 -30 -21 -50t-51 -20z" />
    <glyph glyph-name="uni1EF5" unicode="&#x1ef5;" horiz-adv-x="474" 
d="M-14 -106q17 -10 36 -10q32 0 61 24.5t49 66.5l15 30l-85 486h107l31 -248q4 -33 7 -72.5t5 -74.5h4l34.5 73.5l34.5 73.5l122 248h104l-276 -517q-23 -40 -46.5 -72.5t-49.5 -55.5t-56.5 -35.5t-67.5 -12.5q-12 0 -30.5 5t-32.5 13l34 78v0zM304 -222q-23 0 -42 14.5
t-19 41.5q0 29 21 49.5t51 20.5q23 0 42 -14.5t19 -41.5q0 -30 -21 -50t-51 -20z" />
    <glyph glyph-name="uni1EF7" unicode="&#x1ef7;" horiz-adv-x="474" 
d="M-14 -106q17 -10 36 -10q32 0 61 24.5t49 66.5l15 30l-85 486h107l31 -248q4 -33 7 -72.5t5 -74.5h4l34.5 73.5l34.5 73.5l122 248h104l-276 -517q-23 -40 -46.5 -72.5t-49.5 -55.5t-56.5 -35.5t-67.5 -12.5q-12 0 -30.5 5t-32.5 13l34 78v0zM271 736q73 -2 102.5 -22
t29.5 -51q0 -25 -10.5 -43.5t-29 -31.5t-43.5 -21.5t-53 -12.5l-6 46q28 8 44.5 17t16.5 28q0 15 -15.5 23.5t-56.5 11.5z" />
    <glyph glyph-name="uni1EF9" unicode="&#x1ef9;" horiz-adv-x="474" 
d="M-14 -106q17 -10 36 -10q32 0 61 24.5t49 66.5l15 30l-85 486h107l31 -248q4 -33 7 -72.5t5 -74.5h4l34.5 73.5l34.5 73.5l122 248h104l-276 -517q-23 -40 -46.5 -72.5t-49.5 -55.5t-56.5 -35.5t-67.5 -12.5q-12 0 -30.5 5t-32.5 13l34 78v0zM144 578q16 55 44.5 85.5
t61.5 30.5q22 0 36.5 -7.5t26 -17t22.5 -17t27 -7.5q22 0 42 47h58q-15 -54 -43.5 -85t-62.5 -31q-22 0 -36.5 8t-26 17l-22.5 17t-27 8q-22 0 -42 -48h-58z" />
    <glyph glyph-name="zacute" unicode="&#x17a;" horiz-adv-x="427" 
d="M2 61l292 345h-200l17 85h335l-12 -62l-293 -344h231l-17 -85h-365zM326 717h110l-142 -145h-84z" />
    <glyph glyph-name="zcaron" unicode="&#x17e;" horiz-adv-x="427" 
d="M2 61l292 345h-200l17 85h335l-12 -62l-293 -344h231l-17 -85h-365zM328 572h-83l-65 145h71l42 -85h4l75 85h78z" />
    <glyph glyph-name="zdotaccent" unicode="&#x17c;" horiz-adv-x="427" 
d="M2 61l292 345h-200l17 85h335l-12 -62l-293 -344h231l-17 -85h-365zM292 578q-24 0 -43 14.5t-19 41.5q0 29 21.5 49.5t50.5 20.5q24 0 43 -14.5t19 -41.5q0 -30 -21 -50t-51 -20z" />
    <glyph glyph-name="uni1E93" unicode="&#x1e93;" horiz-adv-x="427" 
d="M2 61l292 345h-200l17 85h335l-12 -62l-293 -344h231l-17 -85h-365zM145 -214q-23 0 -42 14.5t-19 41.5q0 29 21 49.5t51 20.5q23 0 42 -14.5t19 -41.5q0 -30 -21 -50t-51 -20z" />
    <glyph glyph-name="eth" unicode="&#xf0;" horiz-adv-x="531" 
d="M230 75q31 0 57 17.5t45.5 48t31.5 72t16 89.5q-16 26 -40.5 46t-58.5 20q-35 0 -61.5 -16t-45.5 -41.5t-28.5 -58.5t-9.5 -66q0 -45 24 -78t70 -33zM413 591q33 -49 51 -108t18 -131q0 -70 -17 -135.5t-50 -116.5t-82 -81.5t-113 -30.5q-38 0 -71.5 13.5t-58 38.5
t-38.5 60t-14 77q0 51 15.5 100t45.5 87.5t72.5 62.5t96.5 24q35 0 64 -16.5t48 -47.5q-7 100 -53 169l-147 -60l-21 53l130 53q-18 19 -40 36t-48 34l49 63q36 -20 68 -44.5t58 -53.5l145 59l21 -53z" />
    <glyph glyph-name="thorn" unicode="&#xfe;" horiz-adv-x="544" 
d="M245 -12q-35 0 -63 17.5t-46 46.5h-2l-16 -100l-28 -146h-107l181 900h107l-35 -174l-24 -94h2q35 28 74 46.5t80 18.5q66 0 103 -46t37 -133q0 -71 -22 -132t-59 -106.5t-84 -71.5t-98 -26zM324 415q-29 0 -63 -17.5t-62 -53.5l-42 -210q16 -31 37 -44.5t44 -13.5
q31 0 60 18.5t51 50.5t35.5 74.5t13.5 90.5q0 54 -20 79.5t-54 25.5z" />
    <glyph glyph-name="uni0237" unicode="&#x237;" horiz-adv-x="252" 
d="M123 -38q-8 -36 -21 -67t-32.5 -53.5t-47 -35t-64.5 -12.5q-25 0 -45 4.5t-41 15.5l34 78q19 -12 44 -12q27 0 41.5 21t24.5 63l106 527h107z" />
    <glyph glyph-name="uni0251" unicode="&#x251;" horiz-adv-x="544" 
d="M35 167q0 70 22 131.5t59 107t84.5 71.5t98.5 26q36 0 66 -18.5t47 -50.5h2l21 57h86l-98 -491h-88l5 68h-3q-35 -36 -77.5 -58t-84.5 -22q-65 0 -102.5 46t-37.5 133zM219 76q32 0 65.5 19t63.5 64l40 196q-17 32 -38.5 46t-44.5 14q-31 0 -60 -18.5t-51 -50.5
t-35 -74.5t-13 -89.5q0 -54 19.5 -80t53.5 -26z" />
    <glyph glyph-name="uni0259" unicode="&#x259;" horiz-adv-x="485" 
d="M449 295q0 -69 -23.5 -125.5t-62 -97t-86.5 -62.5t-96 -22q-43 0 -72.5 14t-48 38.5t-27 57.5t-8.5 71q0 29 7 58t15 49h299q5 72 -23.5 108.5t-78.5 36.5q-26 0 -53 -9.5t-52 -23.5l-32 71q38 20 77 32t85 12q81 0 130.5 -52.5t49.5 -155.5zM120 208q-6 -23 -6 -46
q0 -18 4 -34.5t13 -28.5t24.5 -19.5t38.5 -7.5q45 0 84.5 34t57.5 102h-216z" />
    <glyph glyph-name="uni0261" unicode="&#x261;" horiz-adv-x="538" 
d="M515 491l-100 -498q-21 -104 -84 -157.5t-161 -53.5q-47 0 -92.5 18t-84.5 50l48 72q28 -23 61 -38.5t71 -15.5q56 0 90 32.5t50 91.5l24 91h-3q-35 -33 -73.5 -53t-82.5 -20q-62 0 -102.5 43.5t-40.5 129.5q0 67 21.5 125t57.5 101.5t82.5 68.5t96.5 25q36 0 65.5 -18.5
t45.5 -50.5h3l21 57h87zM217 99q29 0 63.5 17.5t63.5 56.5l37 182q-17 32 -38 46t-44 14q-30 0 -57.5 -17.5t-49 -47.5t-34 -69.5t-12.5 -83.5q0 -50 19.5 -74t51.5 -24z" />
    <glyph glyph-name="fi" unicode="&#xfb01;" horiz-adv-x="556" 
d="M74 486l65 5l11 57q15 75 57 122.5t116 47.5q28 0 52 -7t45 -18l-36 -76q-9 5 -22.5 10t-28.5 5q-30 0 -49 -19.5t-27 -61.5l-12 -60h93l-17 -85h-94l-80 -406h-107l81 406h-63zM426 491h107l-98 -491h-108zM505 578q-23 0 -42 14.5t-19 41.5q0 29 21 49.5t51 20.5
q23 0 42 -14.5t19 -41.5q0 -30 -21 -50t-51 -20z" />
    <glyph glyph-name="fl" unicode="&#xfb02;" horiz-adv-x="567" 
d="M74 486l65 5l11 57q15 75 57 122.5t116 47.5q28 0 52 -7t45 -18l-36 -76q-9 5 -22.5 10t-28.5 5q-30 0 -49 -19.5t-27 -61.5l-12 -60h93l-17 -85h-94l-80 -406h-107l81 406h-63zM469 706h107l-118 -591q-2 -8 -2 -12v-7q0 -21 17 -21q5 0 8 0.5t10 2.5l-2 -80
q-11 -5 -26 -7.5t-35 -2.5q-43 0 -63 21t-20 59q0 23 7 52z" />
    <glyph glyph-name="I.a" horiz-adv-x="345" 
d="M12 91h73l96 472h-75l19 91h257l-19 -91h-74l-96 -472h77l-19 -91h-258z" />
    <glyph glyph-name="Igrave.a" horiz-adv-x="345" 
d="M12 91h73l96 472h-75l19 91h257l-19 -91h-74l-96 -472h77l-19 -91h-258zM134 818h110l63 -114h-83z" />
    <glyph glyph-name="Iacute.a" horiz-adv-x="345" 
d="M12 91h73l96 472h-75l19 91h257l-19 -91h-74l-96 -472h77l-19 -91h-258zM292 818h119l-133 -114h-90z" />
    <glyph glyph-name="Icircumflex.a" horiz-adv-x="345" 
d="M12 91h73l96 472h-75l19 91h257l-19 -91h-74l-96 -472h77l-19 -91h-258zM220 818h104l69 -114h-80l-46 66h-3l-70 -66h-88z" />
    <glyph glyph-name="Itilde.a" horiz-adv-x="345" 
d="M12 91h73l96 472h-75l19 91h257l-19 -91h-74l-96 -472h77l-19 -91h-258zM100 707q14 54 44.5 86t65.5 32q20 0 34 -8t25.5 -17.5t23 -17.5t26.5 -8q27 0 45 49h58q-14 -54 -44 -86t-65 -32q-21 0 -35 8t-25.5 17.5t-22.5 17.5t-26 8q-28 0 -46 -49h-58z" />
    <glyph glyph-name="Idieresis.a" horiz-adv-x="345" 
d="M12 91h73l96 472h-75l19 91h257l-19 -91h-74l-96 -472h77l-19 -91h-258zM167 708q-21 0 -35 13t-14 36q0 25 18 45t44 20q20 0 34.5 -13t14.5 -36q0 -24 -18 -44.5t-44 -20.5zM345 708q-21 0 -35 13t-14 36q0 25 18 45t44 20q20 0 34.5 -13t14.5 -36q0 -24 -18 -44.5
t-44 -20.5z" />
    <glyph glyph-name="Imacron.a" horiz-adv-x="345" 
d="M12 91h73l96 472h-75l19 91h257l-19 -91h-74l-96 -472h77l-19 -91h-258zM142 796h252l-14 -72h-252z" />
    <glyph glyph-name="Idotaccent.a" horiz-adv-x="345" 
d="M12 91h73l96 472h-75l19 91h257l-19 -91h-74l-96 -472h77l-19 -91h-258zM258 709q-24 0 -43 14t-19 42q0 29 21.5 49.5t50.5 20.5q24 0 43 -15t19 -42q0 -30 -21 -49.5t-51 -19.5z" />
    <glyph glyph-name="uni01CF.a" horiz-adv-x="345" 
d="M12 91h73l96 472h-75l19 91h257l-19 -91h-74l-96 -472h77l-19 -91h-258zM302 704h-103l-70 114h80l46 -66h3l71 66h87z" />
    <glyph glyph-name="uni1EC8.a" horiz-adv-x="345" 
d="M12 91h73l96 472h-75l19 91h257l-19 -91h-74l-96 -472h77l-19 -91h-258zM220 876q71 -3 100.5 -23.5t29.5 -49.5q0 -25 -10.5 -43.5t-29.5 -31.5t-44 -21.5t-53 -12.5l-5 45q28 7 44 16.5t16 28.5q0 15 -14.5 24t-55.5 11z" />
    <glyph glyph-name="uni1ECA.a" horiz-adv-x="345" 
d="M12 91h73l96 472h-75l19 91h257l-19 -91h-74l-96 -472h77l-19 -91h-258zM91 -218q-23 0 -42 14.5t-19 41.5q0 29 21 49.5t51 20.5q23 0 42 -14.5t19 -41.5q0 -30 -21 -50t-51 -20z" />
    <glyph glyph-name="Iogonek.a" horiz-adv-x="345" 
d="M12 91h73l96 472h-75l19 91h257l-19 -91h-74l-96 -472h77l-19 -91h-75q-43 -21 -66.5 -52.5t-23.5 -57.5q0 -17 10.5 -26t24.5 -9q15 0 31 10l22 -53q-18 -13 -44 -20.5t-46 -7.5q-38 0 -61.5 18.5t-23.5 53.5q0 24 10 46t24 41t30.5 33.5t28.5 23.5h-99z" />
    <glyph glyph-name="a.a" horiz-adv-x="503" 
d="M27 109q0 53 23.5 90t65.5 60t99.5 34t125.5 13q4 19 4 33q0 45 -19.5 62t-57.5 17q-32 0 -62.5 -10.5t-65.5 -29.5l-34 75q42 22 89.5 36t94.5 14q77 0 119 -36.5t42 -116.5q0 -32 -8 -70l-55 -280h-87l1 54h-3q-29 -27 -69 -46.5t-80 -19.5q-25 0 -47.5 8t-39 24
t-26.5 38t-10 51zM328 238q-97 -2 -146.5 -30t-49.5 -77q0 -30 18.5 -44.5t47.5 -14.5q26 0 52 13.5t55 39.5z" />
    <glyph glyph-name="agrave.a" horiz-adv-x="503" 
d="M27 109q0 53 23.5 90t65.5 60t99.5 34t125.5 13q4 19 4 33q0 45 -19.5 62t-57.5 17q-32 0 -62.5 -10.5t-65.5 -29.5l-34 75q42 22 89.5 36t94.5 14q77 0 119 -36.5t42 -116.5q0 -32 -8 -70l-55 -280h-87l1 54h-3q-29 -27 -69 -46.5t-80 -19.5q-25 0 -47.5 8t-39 24
t-26.5 38t-10 51zM328 238q-97 -2 -146.5 -30t-49.5 -77q0 -30 18.5 -44.5t47.5 -14.5q26 0 52 13.5t55 39.5zM215 717h102l57 -145h-75z" />
    <glyph glyph-name="aacute.a" horiz-adv-x="503" 
d="M27 109q0 53 23.5 90t65.5 60t99.5 34t125.5 13q4 19 4 33q0 45 -19.5 62t-57.5 17q-32 0 -62.5 -10.5t-65.5 -29.5l-34 75q42 22 89.5 36t94.5 14q77 0 119 -36.5t42 -116.5q0 -32 -8 -70l-55 -280h-87l1 54h-3q-29 -27 -69 -46.5t-80 -19.5q-25 0 -47.5 8t-39 24
t-26.5 38t-10 51zM328 238q-97 -2 -146.5 -30t-49.5 -77q0 -30 18.5 -44.5t47.5 -14.5q26 0 52 13.5t55 39.5zM349 717h110l-142 -145h-84z" />
    <glyph glyph-name="acircumflex.a" horiz-adv-x="503" 
d="M27 109q0 53 23.5 90t65.5 60t99.5 34t125.5 13q4 19 4 33q0 45 -19.5 62t-57.5 17q-32 0 -62.5 -10.5t-65.5 -29.5l-34 75q42 22 89.5 36t94.5 14q77 0 119 -36.5t42 -116.5q0 -32 -8 -70l-55 -280h-87l1 54h-3q-29 -27 -69 -46.5t-80 -19.5q-25 0 -47.5 8t-39 24
t-26.5 38t-10 51zM328 238q-97 -2 -146.5 -30t-49.5 -77q0 -30 18.5 -44.5t47.5 -14.5q26 0 52 13.5t55 39.5zM295 717h83l64 -145h-71l-41 86h-4l-76 -86h-77z" />
    <glyph glyph-name="atilde.a" horiz-adv-x="503" 
d="M27 109q0 53 23.5 90t65.5 60t99.5 34t125.5 13q4 19 4 33q0 45 -19.5 62t-57.5 17q-32 0 -62.5 -10.5t-65.5 -29.5l-34 75q42 22 89.5 36t94.5 14q77 0 119 -36.5t42 -116.5q0 -32 -8 -70l-55 -280h-87l1 54h-3q-29 -27 -69 -46.5t-80 -19.5q-25 0 -47.5 8t-39 24
t-26.5 38t-10 51zM328 238q-97 -2 -146.5 -30t-49.5 -77q0 -30 18.5 -44.5t47.5 -14.5q26 0 52 13.5t55 39.5zM165 578q16 55 44.5 85.5t61.5 30.5q22 0 36.5 -7.5t26 -17t22.5 -17t27 -7.5q22 0 42 47h58q-15 -54 -43.5 -85t-62.5 -31q-22 0 -36.5 8t-26 17l-22.5 17t-27 8
q-22 0 -42 -48h-58z" />
    <glyph glyph-name="adieresis.a" horiz-adv-x="503" 
d="M27 109q0 53 23.5 90t65.5 60t99.5 34t125.5 13q4 19 4 33q0 45 -19.5 62t-57.5 17q-32 0 -62.5 -10.5t-65.5 -29.5l-34 75q42 22 89.5 36t94.5 14q77 0 119 -36.5t42 -116.5q0 -32 -8 -70l-55 -280h-87l1 54h-3q-29 -27 -69 -46.5t-80 -19.5q-25 0 -47.5 8t-39 24
t-26.5 38t-10 51zM328 238q-97 -2 -146.5 -30t-49.5 -77q0 -30 18.5 -44.5t47.5 -14.5q26 0 52 13.5t55 39.5zM225 580q-22 0 -36 13t-14 37q0 26 18.5 45.5t44.5 19.5q21 0 35.5 -13.5t14.5 -37.5q0 -27 -18.5 -45.5t-44.5 -18.5zM403 580q-22 0 -36 13t-14 37
q0 26 18.5 45.5t44.5 19.5q22 0 36 -13.5t14 -37.5q0 -27 -18.5 -45.5t-44.5 -18.5z" />
    <glyph glyph-name="amacron.a" horiz-adv-x="503" 
d="M27 109q0 53 23.5 90t65.5 60t99.5 34t125.5 13q4 19 4 33q0 45 -19.5 62t-57.5 17q-32 0 -62.5 -10.5t-65.5 -29.5l-34 75q42 22 89.5 36t94.5 14q77 0 119 -36.5t42 -116.5q0 -32 -8 -70l-55 -280h-87l1 54h-3q-29 -27 -69 -46.5t-80 -19.5q-25 0 -47.5 8t-39 24
t-26.5 38t-10 51zM328 238q-97 -2 -146.5 -30t-49.5 -77q0 -30 18.5 -44.5t47.5 -14.5q26 0 52 13.5t55 39.5zM201 668h249l-13 -71h-250z" />
    <glyph glyph-name="abreve.a" horiz-adv-x="503" 
d="M27 109q0 53 23.5 90t65.5 60t99.5 34t125.5 13q4 19 4 33q0 45 -19.5 62t-57.5 17q-32 0 -62.5 -10.5t-65.5 -29.5l-34 75q42 22 89.5 36t94.5 14q77 0 119 -36.5t42 -116.5q0 -32 -8 -70l-55 -280h-87l1 54h-3q-29 -27 -69 -46.5t-80 -19.5q-25 0 -47.5 8t-39 24
t-26.5 38t-10 51zM328 238q-97 -2 -146.5 -30t-49.5 -77q0 -30 18.5 -44.5t47.5 -14.5q26 0 52 13.5t55 39.5zM308 575q-31 0 -52 11t-33 29.5t-15.5 42t1.5 48.5h59q-3 -31 8.5 -51t41.5 -20q31 0 51 20.5t30 50.5h62q-7 -25 -19.5 -48.5t-31.5 -42t-44.5 -29.5t-57.5 -11z
" />
    <glyph glyph-name="aring.a" horiz-adv-x="503" 
d="M27 109q0 53 23.5 90t65.5 60t99.5 34t125.5 13q4 19 4 33q0 45 -19.5 62t-57.5 17q-32 0 -62.5 -10.5t-65.5 -29.5l-34 75q42 22 89.5 36t94.5 14q77 0 119 -36.5t42 -116.5q0 -32 -8 -70l-55 -280h-87l1 54h-3q-29 -27 -69 -46.5t-80 -19.5q-25 0 -47.5 8t-39 24
t-26.5 38t-10 51zM328 238q-97 -2 -146.5 -30t-49.5 -77q0 -30 18.5 -44.5t47.5 -14.5q26 0 52 13.5t55 39.5zM315 543q-40 0 -66 22t-26 64q0 22 8 42t22.5 34t33.5 22.5t42 8.5q40 0 65.5 -22t25.5 -63q0 -23 -8 -42.5t-22.5 -34t-33.5 -23t-41 -8.5zM327 691
q-20 0 -34 -17.5t-14 -41.5q0 -19 9.5 -31.5t28.5 -12.5q20 0 34 17.5t14 41.5q0 19 -9.5 31.5t-28.5 12.5z" />
    <glyph glyph-name="uni01CE.a" horiz-adv-x="503" 
d="M27 109q0 53 23.5 90t65.5 60t99.5 34t125.5 13q4 19 4 33q0 45 -19.5 62t-57.5 17q-32 0 -62.5 -10.5t-65.5 -29.5l-34 75q42 22 89.5 36t94.5 14q77 0 119 -36.5t42 -116.5q0 -32 -8 -70l-55 -280h-87l1 54h-3q-29 -27 -69 -46.5t-80 -19.5q-25 0 -47.5 8t-39 24
t-26.5 38t-10 51zM328 238q-97 -2 -146.5 -30t-49.5 -77q0 -30 18.5 -44.5t47.5 -14.5q26 0 52 13.5t55 39.5zM351 572h-83l-65 145h71l42 -85h4l75 85h78z" />
    <glyph glyph-name="uni1EA1.a" horiz-adv-x="503" 
d="M27 109q0 53 23.5 90t65.5 60t99.5 34t125.5 13q4 19 4 33q0 45 -19.5 62t-57.5 17q-32 0 -62.5 -10.5t-65.5 -29.5l-34 75q42 22 89.5 36t94.5 14q77 0 119 -36.5t42 -116.5q0 -32 -8 -70l-55 -280h-87l1 54h-3q-29 -27 -69 -46.5t-80 -19.5q-25 0 -47.5 8t-39 24
t-26.5 38t-10 51zM328 238q-97 -2 -146.5 -30t-49.5 -77q0 -30 18.5 -44.5t47.5 -14.5q26 0 52 13.5t55 39.5zM179 -214q-23 0 -42 14.5t-19 41.5q0 29 21 49.5t51 20.5q23 0 42 -14.5t19 -41.5q0 -30 -21 -50t-51 -20z" />
    <glyph glyph-name="uni1EA3.a" horiz-adv-x="503" 
d="M27 109q0 53 23.5 90t65.5 60t99.5 34t125.5 13q4 19 4 33q0 45 -19.5 62t-57.5 17q-32 0 -62.5 -10.5t-65.5 -29.5l-34 75q42 22 89.5 36t94.5 14q77 0 119 -36.5t42 -116.5q0 -32 -8 -70l-55 -280h-87l1 54h-3q-29 -27 -69 -46.5t-80 -19.5q-25 0 -47.5 8t-39 24
t-26.5 38t-10 51zM328 238q-97 -2 -146.5 -30t-49.5 -77q0 -30 18.5 -44.5t47.5 -14.5q26 0 52 13.5t55 39.5zM299 736q73 -2 102.5 -22t29.5 -51q0 -25 -10.5 -43.5t-29 -31.5t-43.5 -21.5t-53 -12.5l-6 46q28 8 44.5 17t16.5 28q0 15 -15.5 23.5t-56.5 11.5z" />
    <glyph glyph-name="uni1EA5.a" horiz-adv-x="503" 
d="M27 109q0 53 23.5 90t65.5 60t99.5 34t125.5 13q4 19 4 33q0 45 -19.5 62t-57.5 17q-32 0 -62.5 -10.5t-65.5 -29.5l-34 75q42 22 89.5 36t94.5 14q77 0 119 -36.5t42 -116.5q0 -32 -8 -70l-55 -280h-87l1 54h-3q-29 -27 -69 -46.5t-80 -19.5q-25 0 -47.5 8t-39 24
t-26.5 38t-10 51zM328 238q-97 -2 -146.5 -30t-49.5 -77q0 -30 18.5 -44.5t47.5 -14.5q26 0 52 13.5t55 39.5zM290 695h82l54 -123h-64l-38 69h-4l-63 -69h-72zM506 757h84l-110 -116h-63z" />
    <glyph glyph-name="uni1EA7.a" horiz-adv-x="503" 
d="M27 109q0 53 23.5 90t65.5 60t99.5 34t125.5 13q4 19 4 33q0 45 -19.5 62t-57.5 17q-32 0 -62.5 -10.5t-65.5 -29.5l-34 75q42 22 89.5 36t94.5 14q77 0 119 -36.5t42 -116.5q0 -32 -8 -70l-55 -280h-87l1 54h-3q-29 -27 -69 -46.5t-80 -19.5q-25 0 -47.5 8t-39 24
t-26.5 38t-10 51zM328 238q-97 -2 -146.5 -30t-49.5 -77q0 -30 18.5 -44.5t47.5 -14.5q26 0 52 13.5t55 39.5zM533 641h-63l-64 116h82zM290 695h82l54 -123h-64l-38 69h-4l-63 -69h-72z" />
    <glyph glyph-name="uni1EA9.a" horiz-adv-x="503" 
d="M27 109q0 53 23.5 90t65.5 60t99.5 34t125.5 13q4 19 4 33q0 45 -19.5 62t-57.5 17q-32 0 -62.5 -10.5t-65.5 -29.5l-34 75q42 22 89.5 36t94.5 14q77 0 119 -36.5t42 -116.5q0 -32 -8 -70l-55 -280h-87l1 54h-3q-29 -27 -69 -46.5t-80 -19.5q-25 0 -47.5 8t-39 24
t-26.5 38t-10 51zM328 238q-97 -2 -146.5 -30t-49.5 -77q0 -30 18.5 -44.5t47.5 -14.5q26 0 52 13.5t55 39.5zM442 792q63 -3 89.5 -20.5t26.5 -44.5q0 -24 -9 -41t-25 -28.5t-38 -18.5t-47 -12l-3 39q25 8 36 17.5t11 26.5q0 14 -12.5 22t-46.5 12zM290 695h82l54 -123h-64
l-38 69h-4l-63 -69h-72z" />
    <glyph glyph-name="uni1EAB.a" horiz-adv-x="503" 
d="M27 109q0 53 23.5 90t65.5 60t99.5 34t125.5 13q4 19 4 33q0 45 -19.5 62t-57.5 17q-32 0 -62.5 -10.5t-65.5 -29.5l-34 75q42 22 89.5 36t94.5 14q77 0 119 -36.5t42 -116.5q0 -32 -8 -70l-55 -280h-87l1 54h-3q-29 -27 -69 -46.5t-80 -19.5q-25 0 -47.5 8t-39 24
t-26.5 38t-10 51zM328 238q-97 -2 -146.5 -30t-49.5 -77q0 -30 18.5 -44.5t47.5 -14.5q26 0 52 13.5t55 39.5zM436 572h-68l-46 60h-4l-65 -60h-77l103 105h97zM202 714q15 48 41 74t55 26q18 0 30.5 -6.5t23 -14.5t20 -14.5t21.5 -6.5q11 0 23 10.5t19 30.5h50
q-15 -48 -41.5 -74t-55.5 -26q-18 0 -30.5 6.5t-22.5 14.5t-19.5 14.5t-21.5 6.5q-11 0 -22.5 -10.5t-18.5 -30.5h-51z" />
    <glyph glyph-name="uni1EAD.a" horiz-adv-x="503" 
d="M27 109q0 53 23.5 90t65.5 60t99.5 34t125.5 13q4 19 4 33q0 45 -19.5 62t-57.5 17q-32 0 -62.5 -10.5t-65.5 -29.5l-34 75q42 22 89.5 36t94.5 14q77 0 119 -36.5t42 -116.5q0 -32 -8 -70l-55 -280h-87l1 54h-3q-29 -27 -69 -46.5t-80 -19.5q-25 0 -47.5 8t-39 24
t-26.5 38t-10 51zM328 238q-97 -2 -146.5 -30t-49.5 -77q0 -30 18.5 -44.5t47.5 -14.5q26 0 52 13.5t55 39.5zM295 717h83l64 -145h-71l-41 86h-4l-76 -86h-77zM180 -214q-23 0 -42 14.5t-19 41.5q0 29 21 49.5t51 20.5q23 0 42 -14.5t19 -41.5q0 -30 -21 -50t-51 -20z" />
    <glyph glyph-name="uni1EAF.a" horiz-adv-x="503" 
d="M27 109q0 53 23.5 90t65.5 60t99.5 34t125.5 13q4 19 4 33q0 45 -19.5 62t-57.5 17q-32 0 -62.5 -10.5t-65.5 -29.5l-34 75q42 22 89.5 36t94.5 14q77 0 119 -36.5t42 -116.5q0 -32 -8 -70l-55 -280h-87l1 54h-3q-29 -27 -69 -46.5t-80 -19.5q-25 0 -47.5 8t-39 24
t-26.5 38t-10 51zM328 238q-97 -2 -146.5 -30t-49.5 -77q0 -30 18.5 -44.5t47.5 -14.5q26 0 52 13.5t55 39.5zM365 797h82l-103 -115h-58zM306 575q-31 0 -52 11t-33 29.5t-15 42t1 48.5h50q-4 -34 10.5 -54.5t49.5 -20.5q32 0 55.5 21t34.5 54h53q-7 -25 -19.5 -48.5
t-32 -42t-45 -29.5t-57.5 -11z" />
    <glyph glyph-name="uni1EB1.a" horiz-adv-x="503" 
d="M27 109q0 53 23.5 90t65.5 60t99.5 34t125.5 13q4 19 4 33q0 45 -19.5 62t-57.5 17q-32 0 -62.5 -10.5t-65.5 -29.5l-34 75q42 22 89.5 36t94.5 14q77 0 119 -36.5t42 -116.5q0 -32 -8 -70l-55 -280h-87l1 54h-3q-29 -27 -69 -46.5t-80 -19.5q-25 0 -47.5 8t-39 24
t-26.5 38t-10 51zM328 238q-97 -2 -146.5 -30t-49.5 -77q0 -30 18.5 -44.5t47.5 -14.5q26 0 52 13.5t55 39.5zM306 575q-31 0 -52 11t-33 29.5t-15 42t1 48.5h50q-4 -34 10.5 -54.5t49.5 -20.5q32 0 55.5 21t34.5 54h53q-7 -25 -19.5 -48.5t-32 -42t-45 -29.5t-57.5 -11z
M368 682h-56l-57 115h79z" />
    <glyph glyph-name="uni1EB3.a" horiz-adv-x="503" 
d="M27 109q0 53 23.5 90t65.5 60t99.5 34t125.5 13q4 19 4 33q0 45 -19.5 62t-57.5 17q-32 0 -62.5 -10.5t-65.5 -29.5l-34 75q42 22 89.5 36t94.5 14q77 0 119 -36.5t42 -116.5q0 -32 -8 -70l-55 -280h-87l1 54h-3q-29 -27 -69 -46.5t-80 -19.5q-25 0 -47.5 8t-39 24
t-26.5 38t-10 51zM328 238q-97 -2 -146.5 -30t-49.5 -77q0 -30 18.5 -44.5t47.5 -14.5q26 0 52 13.5t55 39.5zM307 854q62 -2 87 -19.5t25 -43.5q0 -48 -31.5 -69t-82.5 -32l-3 41q23 7 33.5 16t10.5 26q0 14 -11.5 21t-45.5 11zM306 575q-31 0 -52 11t-33 29.5t-15 42
t1 48.5h50q-4 -34 10.5 -54.5t49.5 -20.5q32 0 55.5 21t34.5 54h53q-7 -25 -19.5 -48.5t-32 -42t-45 -29.5t-57.5 -11z" />
    <glyph glyph-name="uni1EB5.a" horiz-adv-x="503" 
d="M27 109q0 53 23.5 90t65.5 60t99.5 34t125.5 13q4 19 4 33q0 45 -19.5 62t-57.5 17q-32 0 -62.5 -10.5t-65.5 -29.5l-34 75q42 22 89.5 36t94.5 14q77 0 119 -36.5t42 -116.5q0 -32 -8 -70l-55 -280h-87l1 54h-3q-29 -27 -69 -46.5t-80 -19.5q-25 0 -47.5 8t-39 24
t-26.5 38t-10 51zM328 238q-97 -2 -146.5 -30t-49.5 -77q0 -30 18.5 -44.5t47.5 -14.5q26 0 52 13.5t55 39.5zM306 575q-32 0 -52.5 9.5t-32.5 25.5t-15.5 36t-0.5 41h49q1 -24 15.5 -41t47.5 -17q32 0 55 17.5t33 40.5h51q-6 -21 -18.5 -41t-31 -36t-44 -25.5t-56.5 -9.5z
M202 714q15 48 41 74t55 26q18 0 30.5 -6.5t23 -14.5t20 -14.5t21.5 -6.5q11 0 23 10.5t19 30.5h50q-15 -48 -41.5 -74t-55.5 -26q-18 0 -30.5 6.5t-22.5 14.5t-19.5 14.5t-21.5 6.5q-11 0 -22.5 -10.5t-18.5 -30.5h-51z" />
    <glyph glyph-name="uni1EB7.a" horiz-adv-x="503" 
d="M27 109q0 53 23.5 90t65.5 60t99.5 34t125.5 13q4 19 4 33q0 45 -19.5 62t-57.5 17q-32 0 -62.5 -10.5t-65.5 -29.5l-34 75q42 22 89.5 36t94.5 14q77 0 119 -36.5t42 -116.5q0 -32 -8 -70l-55 -280h-87l1 54h-3q-29 -27 -69 -46.5t-80 -19.5q-25 0 -47.5 8t-39 24
t-26.5 38t-10 51zM328 238q-97 -2 -146.5 -30t-49.5 -77q0 -30 18.5 -44.5t47.5 -14.5q26 0 52 13.5t55 39.5zM308 575q-31 0 -52 11t-33 29.5t-15.5 42t1.5 48.5h59q-3 -31 8.5 -51t41.5 -20q31 0 51 20.5t30 50.5h62q-7 -25 -19.5 -48.5t-31.5 -42t-44.5 -29.5t-57.5 -11z
M180 -214q-23 0 -42 14.5t-19 41.5q0 29 21 49.5t51 20.5q23 0 42 -14.5t19 -41.5q0 -30 -21 -50t-51 -20z" />
    <glyph glyph-name="aogonek.a" horiz-adv-x="503" 
d="M302 54h-3q-29 -27 -69 -46.5t-80 -19.5q-25 0 -47.5 8t-39 24t-26.5 38t-10 51q0 53 23.5 90t65.5 60t99.5 34t125.5 13q4 19 4 33q0 45 -19.5 62t-57.5 17q-32 0 -62.5 -10.5t-65.5 -29.5l-34 75q42 22 89.5 36t94.5 14q77 0 119 -36.5t42 -116.5q0 -32 -8 -70
l-55 -280q-51 -20 -79.5 -48t-28.5 -60q0 -16 10.5 -24.5t24.5 -8.5q10 0 18 3t17 8l20 -48q-20 -13 -44.5 -21.5t-45.5 -8.5q-35 0 -58 17.5t-23 52.5q0 23 10 44.5t25 40t33 33t34 24.5zM328 238q-97 -2 -146.5 -30t-49.5 -77q0 -30 18.5 -44.5t47.5 -14.5q26 0 52 13.5
t55 39.5z" />
    <glyph glyph-name="g.a" horiz-adv-x="490" 
d="M72 302q0 43 16 80t44.5 64t66 42t81.5 15q19 0 34 -3t30 -9h174l-15 -81h-85q8 -14 12 -29.5t4 -30.5q0 -43 -15.5 -78.5t-43 -61t-66 -40t-83.5 -14.5q-31 0 -49 7q-11 -8 -19 -20t-8 -26q0 -22 17 -32.5t70 -16.5q51 -6 85 -16t54.5 -23.5t29 -32t8.5 -42.5
q0 -43 -21.5 -75t-56.5 -53.5t-79 -32t-90 -10.5q-30 0 -62.5 5t-60.5 18t-46 36t-18 58q0 22 9.5 41t25 34.5t35 28t40.5 21.5v3q-14 11 -22 28.5t-8 37.5q0 27 17.5 51.5t46.5 41.5v4q-23 20 -37.5 48t-14.5 63zM144 -2q-12 -6 -25 -14.5t-23.5 -18.5t-17 -21.5
t-6.5 -24.5q0 -35 28.5 -51t76.5 -16q28 0 52 5.5t41.5 16t27.5 24t10 30.5q0 28 -28 40.5t-77 18.5q-24 3 -59 11zM276 428q-23 0 -42.5 -10.5t-33.5 -28t-21.5 -40t-7.5 -46.5q0 -37 17.5 -58t48.5 -21q23 0 42 10.5t33 28t22 40t8 45.5q0 38 -18 59t-48 21z" />
    <glyph glyph-name="gcircumflex.a" horiz-adv-x="490" 
d="M72 302q0 43 16 80t44.5 64t66 42t81.5 15q19 0 34 -3t30 -9h174l-15 -81h-85q8 -14 12 -29.5t4 -30.5q0 -43 -15.5 -78.5t-43 -61t-66 -40t-83.5 -14.5q-31 0 -49 7q-11 -8 -19 -20t-8 -26q0 -22 17 -32.5t70 -16.5q51 -6 85 -16t54.5 -23.5t29 -32t8.5 -42.5
q0 -43 -21.5 -75t-56.5 -53.5t-79 -32t-90 -10.5q-30 0 -62.5 5t-60.5 18t-46 36t-18 58q0 22 9.5 41t25 34.5t35 28t40.5 21.5v3q-14 11 -22 28.5t-8 37.5q0 27 17.5 51.5t46.5 41.5v4q-23 20 -37.5 48t-14.5 63zM144 -2q-12 -6 -25 -14.5t-23.5 -18.5t-17 -21.5
t-6.5 -24.5q0 -35 28.5 -51t76.5 -16q28 0 52 5.5t41.5 16t27.5 24t10 30.5q0 28 -28 40.5t-77 18.5q-24 3 -59 11zM276 428q-23 0 -42.5 -10.5t-33.5 -28t-21.5 -40t-7.5 -46.5q0 -37 17.5 -58t48.5 -21q23 0 42 10.5t33 28t22 40t8 45.5q0 38 -18 59t-48 21zM277 717h83
l64 -145h-71l-41 86h-4l-76 -86h-77z" />
    <glyph glyph-name="gbreve.a" horiz-adv-x="490" 
d="M72 302q0 43 16 80t44.5 64t66 42t81.5 15q19 0 34 -3t30 -9h174l-15 -81h-85q8 -14 12 -29.5t4 -30.5q0 -43 -15.5 -78.5t-43 -61t-66 -40t-83.5 -14.5q-31 0 -49 7q-11 -8 -19 -20t-8 -26q0 -22 17 -32.5t70 -16.5q51 -6 85 -16t54.5 -23.5t29 -32t8.5 -42.5
q0 -43 -21.5 -75t-56.5 -53.5t-79 -32t-90 -10.5q-30 0 -62.5 5t-60.5 18t-46 36t-18 58q0 22 9.5 41t25 34.5t35 28t40.5 21.5v3q-14 11 -22 28.5t-8 37.5q0 27 17.5 51.5t46.5 41.5v4q-23 20 -37.5 48t-14.5 63zM144 -2q-12 -6 -25 -14.5t-23.5 -18.5t-17 -21.5
t-6.5 -24.5q0 -35 28.5 -51t76.5 -16q28 0 52 5.5t41.5 16t27.5 24t10 30.5q0 28 -28 40.5t-77 18.5q-24 3 -59 11zM276 428q-23 0 -42.5 -10.5t-33.5 -28t-21.5 -40t-7.5 -46.5q0 -37 17.5 -58t48.5 -21q23 0 42 10.5t33 28t22 40t8 45.5q0 38 -18 59t-48 21zM290 575
q-31 0 -52 11t-33 29.5t-15.5 42t1.5 48.5h59q-3 -31 8.5 -51t41.5 -20q31 0 51 20.5t30 50.5h62q-7 -25 -19.5 -48.5t-31.5 -42t-44.5 -29.5t-57.5 -11z" />
    <glyph glyph-name="gdotaccent.a" horiz-adv-x="490" 
d="M72 302q0 43 16 80t44.5 64t66 42t81.5 15q19 0 34 -3t30 -9h174l-15 -81h-85q8 -14 12 -29.5t4 -30.5q0 -43 -15.5 -78.5t-43 -61t-66 -40t-83.5 -14.5q-31 0 -49 7q-11 -8 -19 -20t-8 -26q0 -22 17 -32.5t70 -16.5q51 -6 85 -16t54.5 -23.5t29 -32t8.5 -42.5
q0 -43 -21.5 -75t-56.5 -53.5t-79 -32t-90 -10.5q-30 0 -62.5 5t-60.5 18t-46 36t-18 58q0 22 9.5 41t25 34.5t35 28t40.5 21.5v3q-14 11 -22 28.5t-8 37.5q0 27 17.5 51.5t46.5 41.5v4q-23 20 -37.5 48t-14.5 63zM144 -2q-12 -6 -25 -14.5t-23.5 -18.5t-17 -21.5
t-6.5 -24.5q0 -35 28.5 -51t76.5 -16q28 0 52 5.5t41.5 16t27.5 24t10 30.5q0 28 -28 40.5t-77 18.5q-24 3 -59 11zM276 428q-23 0 -42.5 -10.5t-33.5 -28t-21.5 -40t-7.5 -46.5q0 -37 17.5 -58t48.5 -21q23 0 42 10.5t33 28t22 40t8 45.5q0 38 -18 59t-48 21zM297 578
q-24 0 -43 14.5t-19 41.5q0 29 21.5 49.5t50.5 20.5q24 0 43 -14.5t19 -41.5q0 -30 -21 -50t-51 -20z" />
    <glyph glyph-name="uni0123.a" horiz-adv-x="490" 
d="M72 302q0 43 16 80t44.5 64t66 42t81.5 15q19 0 34 -3t30 -9h174l-15 -81h-85q8 -14 12 -29.5t4 -30.5q0 -43 -15.5 -78.5t-43 -61t-66 -40t-83.5 -14.5q-31 0 -49 7q-11 -8 -19 -20t-8 -26q0 -22 17 -32.5t70 -16.5q51 -6 85 -16t54.5 -23.5t29 -32t8.5 -42.5
q0 -43 -21.5 -75t-56.5 -53.5t-79 -32t-90 -10.5q-30 0 -62.5 5t-60.5 18t-46 36t-18 58q0 22 9.5 41t25 34.5t35 28t40.5 21.5v3q-14 11 -22 28.5t-8 37.5q0 27 17.5 51.5t46.5 41.5v4q-23 20 -37.5 48t-14.5 63zM144 -2q-12 -6 -25 -14.5t-23.5 -18.5t-17 -21.5
t-6.5 -24.5q0 -35 28.5 -51t76.5 -16q28 0 52 5.5t41.5 16t27.5 24t10 30.5q0 28 -28 40.5t-77 18.5q-24 3 -59 11zM276 428q-23 0 -42.5 -10.5t-33.5 -28t-21.5 -40t-7.5 -46.5q0 -37 17.5 -58t48.5 -21q23 0 42 10.5t33 28t22 40t8 45.5q0 38 -18 59t-48 21zM310 543
q-40 8 -63 24.5t-23 46.5q0 28 13.5 46.5t36.5 30t53 17.5t63 8l4 -45q-45 -5 -68.5 -16.5t-23.5 -34.5q0 -14 10.5 -22t26.5 -14z" />
    <glyph glyph-name="gcaron.a" horiz-adv-x="490" 
d="M72 302q0 43 16 80t44.5 64t66 42t81.5 15q19 0 34 -3t30 -9h174l-15 -81h-85q8 -14 12 -29.5t4 -30.5q0 -43 -15.5 -78.5t-43 -61t-66 -40t-83.5 -14.5q-31 0 -49 7q-11 -8 -19 -20t-8 -26q0 -22 17 -32.5t70 -16.5q51 -6 85 -16t54.5 -23.5t29 -32t8.5 -42.5
q0 -43 -21.5 -75t-56.5 -53.5t-79 -32t-90 -10.5q-30 0 -62.5 5t-60.5 18t-46 36t-18 58q0 22 9.5 41t25 34.5t35 28t40.5 21.5v3q-14 11 -22 28.5t-8 37.5q0 27 17.5 51.5t46.5 41.5v4q-23 20 -37.5 48t-14.5 63zM144 -2q-12 -6 -25 -14.5t-23.5 -18.5t-17 -21.5
t-6.5 -24.5q0 -35 28.5 -51t76.5 -16q28 0 52 5.5t41.5 16t27.5 24t10 30.5q0 28 -28 40.5t-77 18.5q-24 3 -59 11zM276 428q-23 0 -42.5 -10.5t-33.5 -28t-21.5 -40t-7.5 -46.5q0 -37 17.5 -58t48.5 -21q23 0 42 10.5t33 28t22 40t8 45.5q0 38 -18 59t-48 21zM333 572h-83
l-65 145h71l42 -85h4l75 85h78z" />
    <glyph glyph-name="uni1E21.a" horiz-adv-x="490" 
d="M72 302q0 43 16 80t44.5 64t66 42t81.5 15q19 0 34 -3t30 -9h174l-15 -81h-85q8 -14 12 -29.5t4 -30.5q0 -43 -15.5 -78.5t-43 -61t-66 -40t-83.5 -14.5q-31 0 -49 7q-11 -8 -19 -20t-8 -26q0 -22 17 -32.5t70 -16.5q51 -6 85 -16t54.5 -23.5t29 -32t8.5 -42.5
q0 -43 -21.5 -75t-56.5 -53.5t-79 -32t-90 -10.5q-30 0 -62.5 5t-60.5 18t-46 36t-18 58q0 22 9.5 41t25 34.5t35 28t40.5 21.5v3q-14 11 -22 28.5t-8 37.5q0 27 17.5 51.5t46.5 41.5v4q-23 20 -37.5 48t-14.5 63zM144 -2q-12 -6 -25 -14.5t-23.5 -18.5t-17 -21.5
t-6.5 -24.5q0 -35 28.5 -51t76.5 -16q28 0 52 5.5t41.5 16t27.5 24t10 30.5q0 28 -28 40.5t-77 18.5q-24 3 -59 11zM276 428q-23 0 -42.5 -10.5t-33.5 -28t-21.5 -40t-7.5 -46.5q0 -37 17.5 -58t48.5 -21q23 0 42 10.5t33 28t22 40t8 45.5q0 38 -18 59t-48 21zM183 668h249
l-13 -71h-250z" />
    <glyph glyph-name="uni00670303.a" horiz-adv-x="490" 
d="M72 302q0 43 16 80t44.5 64t66 42t81.5 15q19 0 34 -3t30 -9h174l-15 -81h-85q8 -14 12 -29.5t4 -30.5q0 -43 -15.5 -78.5t-43 -61t-66 -40t-83.5 -14.5q-31 0 -49 7q-11 -8 -19 -20t-8 -26q0 -22 17 -32.5t70 -16.5q51 -6 85 -16t54.5 -23.5t29 -32t8.5 -42.5
q0 -43 -21.5 -75t-56.5 -53.5t-79 -32t-90 -10.5q-30 0 -62.5 5t-60.5 18t-46 36t-18 58q0 22 9.5 41t25 34.5t35 28t40.5 21.5v3q-14 11 -22 28.5t-8 37.5q0 27 17.5 51.5t46.5 41.5v4q-23 20 -37.5 48t-14.5 63zM144 -2q-12 -6 -25 -14.5t-23.5 -18.5t-17 -21.5
t-6.5 -24.5q0 -35 28.5 -51t76.5 -16q28 0 52 5.5t41.5 16t27.5 24t10 30.5q0 28 -28 40.5t-77 18.5q-24 3 -59 11zM276 428q-23 0 -42.5 -10.5t-33.5 -28t-21.5 -40t-7.5 -46.5q0 -37 17.5 -58t48.5 -21q23 0 42 10.5t33 28t22 40t8 45.5q0 38 -18 59t-48 21zM147 578
q16 55 44.5 85.5t61.5 30.5q22 0 36.5 -7.5t26 -17t22.5 -17t27 -7.5q22 0 42 47h58q-15 -54 -43.5 -85t-62.5 -31q-22 0 -36.5 8t-26 17l-22.5 17t-27 8q-22 0 -42 -48h-58z" />
    <glyph glyph-name="l.a" horiz-adv-x="252" 
d="M164 706h107l-141 -706h-108z" />
    <glyph glyph-name="lacute.a" horiz-adv-x="252" 
d="M164 706h107l-141 -706h-108zM269 872h119l-133 -114h-90z" />
    <glyph glyph-name="lcaron.a" horiz-adv-x="262" 
d="M164 706h107l-141 -706h-108zM283 548l40 217h71l-13 -63l-49 -154h-49z" />
    <glyph glyph-name="ldot.a" horiz-adv-x="377" 
d="M164 706h107l-141 -706h-108zM319 259q-27 0 -43 17.5t-16 44.5q0 16 6 31.5t17.5 27.5t26.5 19.5t33 7.5q27 0 42.5 -18t15.5 -45q0 -16 -6 -31.5t-16.5 -27.5t-26 -19t-33.5 -7z" />
    <glyph glyph-name="uni013C.a" horiz-adv-x="252" 
d="M164 706h107l-141 -706h-108zM42 -42q40 -8 63 -24t23 -46q0 -28 -13.5 -46.5t-36.5 -30t-53 -17.5t-63 -8l-4 45q45 5 68.5 16.5t23.5 34.5q0 14 -10.5 22t-26.5 13z" />
    <glyph glyph-name="uni1E37.a" horiz-adv-x="252" 
d="M164 706h107l-141 -706h-108zM43 -214q-23 0 -42 14.5t-19 41.5q0 29 21 49.5t51 20.5q23 0 42 -14.5t19 -41.5q0 -30 -21 -50t-51 -20z" />
    <glyph glyph-name="uni1E39.a" horiz-adv-x="252" 
d="M164 706h107l-141 -706h-108zM122 884h249l-13 -71h-250zM43 -214q-23 0 -42 14.5t-19 41.5q0 29 21 49.5t51 20.5q23 0 42 -14.5t19 -41.5q0 -30 -21 -50t-51 -20z" />
    <glyph glyph-name="uni1E3B.a" horiz-adv-x="252" 
d="M164 706h107l-141 -706h-108zM-67 -100h249l-13 -71h-250z" />
    <glyph glyph-name="lslash.a" horiz-adv-x="265" 
d="M286 410l-76 -44l-73 -366h-107l62 310l-69 -38l19 90l68 38l61 306h107l-50 -251l74 44z" />
    <glyph glyph-name="fl.a" horiz-adv-x="557" 
d="M74 486l65 5l11 57q15 75 57 122.5t116 47.5q28 0 52 -7t45 -18l-36 -76q-9 5 -22.5 10t-28.5 5q-30 0 -49 -19.5t-27 -61.5l-12 -60h93l-17 -85h-94l-80 -406h-107l81 406h-63zM469 706h107l-141 -706h-108z" />
    <glyph glyph-name="ampersand" unicode="&#x26;" horiz-adv-x="608" 
d="M119 158q0 -39 24.5 -63.5t66.5 -24.5q57 0 115 40q-36 38 -67 81.5t-54 90.5q-37 -26 -61 -56t-24 -68zM245 476q0 -17 2.5 -34.5t7.5 -34.5q25 14 47 29t38.5 31.5t26 36t9.5 42.5q0 20 -10.5 33.5t-32.5 13.5q-36 0 -62 -32t-26 -85zM610 360q-30 -64 -67 -123.5
t-85 -113.5q26 -19 52 -31t47 -19l-43 -85q-32 8 -64.5 25t-64.5 42q-43 -32 -91.5 -49.5t-103.5 -17.5q-81 0 -128 43t-47 115q0 40 13 72t35 58t50.5 46.5t59.5 38.5q-9 29 -14 57t-5 54q0 41 14.5 76.5t40 61.5t59.5 41t72 15q60 0 90.5 -33t30.5 -86q0 -38 -15.5 -68.5
t-40.5 -56t-57 -47.5t-65 -42q21 -43 50.5 -83t63.5 -74q37 40 64.5 85.5t50.5 98.5h98z" />
    <glyph glyph-name="zero" unicode="0" horiz-adv-x="494" 
d="M209 -12q-78 0 -123.5 59.5t-45.5 162.5q0 98 23 178.5t61 138.5t87 89.5t101 31.5q38 0 69 -15.5t52.5 -44.5t33.5 -70.5t12 -93.5q0 -98 -22.5 -178t-60 -137.5t-86.5 -89t-101 -31.5zM305 565q-33 0 -62.5 -31t-52.5 -81.5t-36.5 -116t-13.5 -134.5q0 -63 18.5 -96.5
t56.5 -33.5q33 0 62.5 30.5t52.5 80.5t36.5 115t13.5 134q0 63 -18.5 98t-56.5 35z" />
    <glyph glyph-name="one" unicode="1" horiz-adv-x="494" 
d="M40 87h135l87 430h-115l14 68q48 8 83.5 20t67.5 31h81l-111 -549h123l-17 -87h-366z" />
    <glyph glyph-name="two" unicode="2" horiz-adv-x="494" 
d="M0 62l153.5 129t113.5 104.5t70 90t24 86.5q0 39 -22.5 64.5t-67.5 25.5q-29 0 -58 -15t-59 -42l-53 64q45 38 90 58.5t93 20.5q86 0 134 -45.5t48 -118.5q0 -50 -19.5 -94.5t-57 -90t-92.5 -96l-125 -112.5h244l-17 -91h-411z" />
    <glyph glyph-name="three" unicode="3" horiz-adv-x="494" 
d="M56 156q25 -35 60.5 -58t77.5 -23q60 0 96.5 30.5t36.5 80.5q0 23 -8.5 41.5t-28.5 32t-52.5 21t-81.5 7.5l16 78q55 0 91.5 10t58.5 26t31 37t9 42q0 36 -22 58.5t-67 22.5q-54 0 -113 -45l-53 70q45 32 91 46.5t94 14.5q83 0 131 -40.5t48 -108.5q0 -61 -33.5 -105
t-108.5 -67v-4q52 -19 78.5 -54.5t26.5 -81.5q0 -47 -18 -84t-50 -62.5t-76 -39t-96 -13.5q-62 0 -116 30t-90 82z" />
    <glyph glyph-name="four" unicode="4" horiz-adv-x="494" 
d="M242 0l33 165h-267l14 74l321 397h125l-78 -387h78l-16 -84h-78l-33 -165h-99zM291 249l31 151q6 32 14.5 66l16.5 68h-4l-37.5 -57t-37.5 -53l-142 -175h159z" />
    <glyph glyph-name="five" unicode="5" horiz-adv-x="494" 
d="M63 155q23 -34 54 -57t79 -23q27 0 52 10t43.5 29t30 46t11.5 60q0 53 -27 79t-74 26q-14 0 -25.5 -1.5t-22.5 -5.5t-23.5 -9.5t-28.5 -14.5l-42 34l79 308h321l-18 -90h-228l-43 -156q16 8 33.5 12t38.5 4q36 0 66.5 -10.5t53 -31.5t35.5 -52.5t13 -73.5q0 -58 -21 -104
t-55.5 -78.5t-79 -50t-92.5 -17.5q-63 0 -113 29t-86 82z" />
    <glyph glyph-name="six" unicode="6" horiz-adv-x="494" 
d="M244 69q25 0 45 13t34.5 33.5t22.5 46t8 51.5q0 48 -21 75t-63 27q-22 0 -53.5 -14.5t-64.5 -55.5q-1 -11 -1 -22v-22q0 -61 25.5 -96.5t67.5 -35.5zM438 507q-16 25 -36.5 39.5t-49.5 14.5q-33 0 -63 -16t-55 -46t-44 -74t-29 -100q31 33 69 49.5t67 16.5
q69 0 112.5 -42t43.5 -124q0 -47 -16 -89.5t-45 -75.5t-68.5 -52.5t-85.5 -19.5q-43 0 -77.5 16t-59 45.5t-37.5 70t-13 89.5q0 97 23 178t64 139t97.5 90t123.5 32q28 0 51 -7.5t41 -19.5t32 -27t24 -30z" />
    <glyph glyph-name="seven" unicode="7" horiz-adv-x="494" 
d="M110 0q22 86 47.5 161.5t58.5 142.5t75.5 126.5t98.5 115.5h-287l18 90h408l-13 -68q-73 -68 -122 -136.5t-82 -139t-54 -143.5t-37 -149h-111v0z" />
    <glyph glyph-name="eight" unicode="8" horiz-adv-x="494" 
d="M225 306q-40 -25 -66 -58.5t-26 -81.5q0 -46 28.5 -74t73.5 -28q22 0 43 7t37 21t25.5 34t9.5 47q0 23 -9.5 41.5t-26.5 34t-40 29zM315 355q30 22 53.5 53.5t23.5 76.5q0 39 -21.5 62.5t-58.5 23.5q-38 0 -66 -25t-28 -71q0 -44 25.5 -70t71.5 -50zM36 154q0 34 11.5 63
t31 52t45.5 40.5t55 29.5v4q-28 28 -42 58.5t-14 68.5q0 42 16 75t43 56t62.5 35t75.5 12q31 0 60.5 -9t52.5 -27t37.5 -46t14.5 -66q0 -62 -32.5 -104.5t-85.5 -71.5v-4q31 -21 56.5 -57.5t25.5 -86.5q0 -44 -18 -78.5t-48.5 -59t-70.5 -37.5t-84 -13q-34 0 -68.5 10
t-62 30t-44.5 51.5t-17 74.5z" />
    <glyph glyph-name="nine" unicode="9" horiz-adv-x="494" 
d="M252 321q22 0 53.5 15t64.5 57q1 11 1 21v21q0 61 -25.5 96.5t-67.5 35.5q-25 0 -45.5 -13t-35 -33.5t-22.5 -46.5t-8 -51q0 -48 21.5 -75t63.5 -27zM84 129q15 -25 35.5 -39.5t49.5 -14.5q33 0 63 16t55 46.5t44 74.5t30 100q-30 -33 -68.5 -50t-67.5 -17
q-69 0 -113 42.5t-44 123.5q0 46 16 89t45 76t68 52.5t86 19.5q43 0 78 -16.5t59.5 -45.5t37.5 -69.5t13 -89.5q0 -98 -23.5 -178.5t-64.5 -138.5t-97.5 -90t-123.5 -32q-28 0 -50.5 7.5t-40.5 19.5t-32.5 27t-24.5 30z" />
    <glyph glyph-name="zero.pnum" horiz-adv-x="523" 
d="M219 -12q-41 0 -74 15.5t-56.5 44.5t-36 70t-12.5 92q0 98 24 178.5t63 138.5t90 89.5t105 31.5q40 0 73 -16t56 -45t35.5 -70.5t12.5 -92.5q0 -98 -23.5 -178t-62.5 -137.5t-89.5 -89t-104.5 -31.5zM315 565q-35 0 -66.5 -31t-55.5 -81.5t-38.5 -116t-14.5 -134.5
q0 -63 21 -96.5t64 -33.5q34 0 66 30.5t56 80.5t38.5 115t14.5 134q0 63 -21 98t-64 35z" />
    <glyph glyph-name="one.pnum" horiz-adv-x="359" 
d="M93 0l104 517h-115l14 68q48 8 84 20t68 31h80l-128 -636h-107z" />
    <glyph glyph-name="two.pnum" horiz-adv-x="479" 
d="M0 62l149.5 129t110 104.5t68 90t23.5 86.5q0 39 -20 64.5t-60 25.5q-29 0 -58 -15t-59 -42l-53 64q45 38 90 58.5t93 20.5q80 0 126 -45.5t46 -118.5q0 -50 -19 -94.5t-55.5 -90t-89.5 -96l-120 -112.5h234l-17 -91h-401z" />
    <glyph glyph-name="three.pnum" horiz-adv-x="475" 
d="M51 156q25 -35 60.5 -58t77.5 -23q60 0 96.5 30.5t36.5 80.5q0 23 -8.5 41.5t-28.5 32t-52.5 21t-81.5 7.5l16 78q55 0 91.5 10t58.5 26t31 37t9 42q0 36 -22 58.5t-67 22.5q-54 0 -113 -45l-53 70q45 32 91 46.5t94 14.5q83 0 131 -40.5t48 -108.5q0 -61 -33.5 -105
t-108.5 -67v-4q52 -19 78.5 -54.5t26.5 -81.5q0 -47 -18 -84t-50 -62.5t-76 -39t-96 -13.5q-62 0 -116 30t-90 82z" />
    <glyph glyph-name="four.pnum" horiz-adv-x="504" 
d="M252 0l33 165h-267l14 74l321 397h125l-78 -387h78l-16 -84h-78l-33 -165h-99zM301 249l31 151q6 32 14.5 66l16.5 68h-4l-37.5 -57t-37.5 -53l-142 -175h159z" />
    <glyph glyph-name="five.pnum" horiz-adv-x="475" 
d="M56 155q23 -34 54 -57t79 -23q27 0 52 10t43.5 29t30 46t11.5 60q0 53 -27 79t-74 26q-14 0 -25.5 -1.5t-22.5 -5.5t-23.5 -9.5t-28.5 -14.5l-42 34l79 308h321l-18 -90h-228l-43 -156q16 8 33.5 12t38.5 4q36 0 66.5 -10.5t53 -31.5t35.5 -52.5t13 -73.5q0 -58 -21 -104
t-55.5 -78.5t-79 -50t-92.5 -17.5q-63 0 -113 29t-86 82z" />
    <glyph glyph-name="six.pnum" horiz-adv-x="494" 
d="M244 69q25 0 45 13t34.5 33.5t22.5 46t8 51.5q0 48 -21 75t-63 27q-22 0 -53.5 -14.5t-64.5 -55.5q-1 -11 -1 -22v-22q0 -61 25.5 -96.5t67.5 -35.5zM438 507q-16 25 -36.5 39.5t-49.5 14.5q-33 0 -63 -16t-55 -46t-44 -74t-29 -100q31 33 69 49.5t67 16.5
q69 0 112.5 -42t43.5 -124q0 -47 -16 -89.5t-45 -75.5t-68.5 -52.5t-85.5 -19.5q-43 0 -77.5 16t-59 45.5t-37.5 70t-13 89.5q0 97 23 178t64 139t97.5 90t123.5 32q28 0 51 -7.5t41 -19.5t32 -27t24 -30z" />
    <glyph glyph-name="seven.pnum" horiz-adv-x="468" 
d="M96 0q22 86 47.5 161.5t57.5 142.5t73.5 126.5t94.5 115.5h-277l18 90h398l-14 -68q-70 -68 -117.5 -136.5t-79.5 -139t-53 -143.5t-37 -149h-111v0z" />
    <glyph glyph-name="eight.pnum" horiz-adv-x="494" 
d="M225 306q-40 -25 -66 -58.5t-26 -81.5q0 -46 28.5 -74t73.5 -28q22 0 43 7t37 21t25.5 34t9.5 47q0 23 -9.5 41.5t-26.5 34t-40 29zM315 355q30 22 53.5 53.5t23.5 76.5q0 39 -21.5 62.5t-58.5 23.5q-38 0 -66 -25t-28 -71q0 -44 25.5 -70t71.5 -50zM36 154q0 34 11.5 63
t31 52t45.5 40.5t55 29.5v4q-28 28 -42 58.5t-14 68.5q0 42 16 75t43 56t62.5 35t75.5 12q31 0 60.5 -9t52.5 -27t37.5 -46t14.5 -66q0 -62 -32.5 -104.5t-85.5 -71.5v-4q31 -21 56.5 -57.5t25.5 -86.5q0 -44 -18 -78.5t-48.5 -59t-70.5 -37.5t-84 -13q-34 0 -68.5 10
t-62 30t-44.5 51.5t-17 74.5z" />
    <glyph glyph-name="nine.pnum" horiz-adv-x="494" 
d="M252 321q22 0 53.5 15t64.5 57q1 11 1 21v21q0 61 -25.5 96.5t-67.5 35.5q-25 0 -45.5 -13t-35 -33.5t-22.5 -46.5t-8 -51q0 -48 21.5 -75t63.5 -27zM84 129q15 -25 35.5 -39.5t49.5 -14.5q33 0 63 16t55 46.5t44 74.5t30 100q-30 -33 -68.5 -50t-67.5 -17
q-69 0 -113 42.5t-44 123.5q0 46 16 89t45 76t68 52.5t86 19.5q43 0 78 -16.5t59.5 -45.5t37.5 -69.5t13 -89.5q0 -98 -23.5 -178.5t-64.5 -138.5t-97.5 -90t-123.5 -32q-28 0 -50.5 7.5t-40.5 19.5t-32.5 27t-24.5 30z" />
    <glyph glyph-name="zero.tnum" horiz-adv-x="494" 
d="M208 -12q-41 0 -73 15t-54 42.5t-34 66t-12 86.5q0 70 17.5 140t51.5 125.5t82.5 90t110.5 34.5q40 0 72.5 -15t54.5 -42.5t34 -66t12 -86.5q0 -70 -17.5 -140t-51.5 -125.5t-82.5 -90t-110.5 -34.5zM288 504q-33 0 -60.5 -27.5t-48 -70.5t-32 -96t-11.5 -104
q0 -65 20 -99.5t62 -34.5q32 0 59.5 27.5t48 70.5t32 96t11.5 104q0 65 -20 99.5t-61 34.5z" />
    <glyph glyph-name="one.tnum" horiz-adv-x="494" 
d="M40 87h135l74 370h-115l14 68q48 7 84 19.5t68 31.5h80l-98 -489h123l-17 -87h-366z" />
    <glyph glyph-name="two.tnum" horiz-adv-x="494" 
d="M0 62l146 111.5t108 89.5t66.5 76.5t22.5 72.5q0 38 -22.5 64t-67.5 26q-29 0 -58 -15.5t-59 -41.5l-53 64q45 38 90 58.5t93 20.5q43 0 76.5 -12t57 -34t36 -52t12.5 -66q0 -42 -18.5 -80t-54 -77t-87 -81.5l-116.5 -94.5h244l-17 -91h-411z" />
    <glyph glyph-name="three.tnum" horiz-adv-x="494" 
d="M45 80q23 -35 56.5 -58t74.5 -23q60 0 97 34t37 86q0 23 -8.5 42t-27.5 32.5t-51 21t-78 7.5l15 78q54 0 90.5 10.5t58 27t31 38t9.5 44.5q0 37 -22.5 59.5t-65.5 22.5q-26 0 -55 -12t-58 -34l-52 70q45 32 90.5 47t93.5 15q84 0 131 -41t47 -109q0 -63 -36.5 -108.5
t-104.5 -69.5v-4q48 -20 74 -54.5t26 -84.5q0 -48 -18 -86t-49.5 -64.5t-74 -40.5t-92.5 -14q-63 0 -117 30t-90 82z" />
    <glyph glyph-name="four.tnum" horiz-adv-x="494" 
d="M283 173l33 167q7 31 15.5 65l16.5 69h-4l-38 -57t-37 -53l-151 -191h165zM382 173h78l-17 -83h-78l-33 -166h-99l33 166h-272l14 73l330 413h124z" />
    <glyph glyph-name="five.tnum" horiz-adv-x="494" 
d="M46 79q23 -33 54 -56t79 -23q27 0 51.5 10t43.5 29t30 46t11 60q0 55 -27 83t-74 28q-14 0 -25.5 -2t-22.5 -5.5t-23.5 -9.5l-28.5 -14l-42 34l82 317h321l-18 -91h-228l-46 -164q34 16 72 16q36 0 67 -11t53.5 -33t35.5 -54.5t13 -75.5q0 -58 -21 -104.5t-55.5 -79
t-79.5 -50t-93 -17.5q-63 0 -113 29.5t-85 82.5z" />
    <glyph glyph-name="six.tnum" horiz-adv-x="494" 
d="M244 69q25 0 45 13t34.5 33.5t22.5 46t8 51.5q0 48 -21 75t-63 27q-22 0 -53.5 -14.5t-64.5 -55.5q-1 -11 -1 -22v-22q0 -61 25.5 -96.5t67.5 -35.5zM438 507q-16 25 -36.5 39.5t-49.5 14.5q-33 0 -63 -16t-55 -46t-44 -74t-29 -100q31 33 69 49.5t67 16.5
q69 0 112.5 -42t43.5 -124q0 -47 -16 -89.5t-45 -75.5t-68.5 -52.5t-85.5 -19.5q-43 0 -77.5 16t-59 45.5t-37.5 70t-13 89.5q0 97 23 178t64 139t97.5 90t123.5 32q28 0 51 -7.5t41 -19.5t32 -27t24 -30z" />
    <glyph glyph-name="seven.tnum" horiz-adv-x="494" 
d="M93 -76q22 88 48 166t60 147t76.5 130.5t98.5 117.5h-287l18 91h408l-13 -68q-73 -69 -122.5 -140t-83.5 -143.5t-55 -147.5t-37 -153h-111v0z" />
    <glyph glyph-name="eight.tnum" horiz-adv-x="494" 
d="M225 306q-40 -25 -66 -58.5t-26 -81.5q0 -46 28.5 -74t73.5 -28q22 0 43 7t37 21t25.5 34t9.5 47q0 23 -9.5 41.5t-26.5 34t-40 29zM315 355q30 22 53.5 53.5t23.5 76.5q0 39 -21.5 62.5t-58.5 23.5q-38 0 -66 -25t-28 -71q0 -44 25.5 -70t71.5 -50zM36 154q0 34 11.5 63
t31 52t45.5 40.5t55 29.5v4q-28 28 -42 58.5t-14 68.5q0 42 16 75t43 56t62.5 35t75.5 12q31 0 60.5 -9t52.5 -27t37.5 -46t14.5 -66q0 -62 -32.5 -104.5t-85.5 -71.5v-4q31 -21 56.5 -57.5t25.5 -86.5q0 -44 -18 -78.5t-48.5 -59t-70.5 -37.5t-84 -13q-34 0 -68.5 10
t-62 30t-44.5 51.5t-17 74.5z" />
    <glyph glyph-name="nine.tnum" horiz-adv-x="494" 
d="M236 241q24 0 56.5 14.5t67.5 55.5q1 16 1.5 31.5t0.5 32.5q0 61 -25.5 96.5t-67.5 35.5q-27 0 -49 -14t-38 -36t-25 -49.5t-9 -54.5q0 -52 23 -82t65 -30zM69 54q16 -25 36 -39.5t49 -14.5q65 0 118 59.5t76 167.5q-32 -31 -70.5 -46.5t-68.5 -15.5q-34 0 -63 11
t-50.5 33.5t-33.5 55t-12 76.5q0 48 16.5 93t46.5 79t71 54.5t90 20.5q43 0 78 -16.5t59.5 -45.5t37.5 -69.5t13 -89.5q0 -100 -23.5 -183.5t-65.5 -143.5t-99.5 -93.5t-125.5 -33.5q-28 0 -51 7.5t-41 19.5t-32 27t-24 31z" />
    <glyph glyph-name="zero.onum" horiz-adv-x="494" 
d="M208 -12q-41 0 -73 15t-54 42.5t-34 66t-12 86.5q0 70 17.5 140t51.5 125.5t82.5 90t110.5 34.5q40 0 72.5 -15t54.5 -42.5t34 -66t12 -86.5q0 -70 -17.5 -140t-51.5 -125.5t-82.5 -90t-110.5 -34.5zM288 504q-33 0 -60.5 -27.5t-48 -70.5t-32 -96t-11.5 -104
q0 -65 20 -99.5t62 -34.5q32 0 59.5 27.5t48 70.5t32 96t11.5 104q0 65 -20 99.5t-61 34.5z" />
    <glyph glyph-name="one.onum" horiz-adv-x="359" 
d="M183 457h-114l13 68q48 7 84 19.5t68 31.5h80l-116 -576h-107z" />
    <glyph glyph-name="two.onum" horiz-adv-x="471" 
d="M0 62l140.5 111.5t103.5 89.5t64 76.5t22 72.5q0 38 -20 64t-57 26q-29 0 -58 -15.5t-59 -41.5l-53 64q45 38 90 58.5t93 20.5q39 0 70 -12t53 -34t33.5 -52t11.5 -66q0 -42 -18 -80t-52.5 -77t-84 -81.5l-111.5 -94.5h229l-17 -91h-392z" />
    <glyph glyph-name="three.onum" horiz-adv-x="494" 
d="M45 80q23 -35 56.5 -58t74.5 -23q60 0 97 34t37 86q0 23 -8.5 42t-27.5 32.5t-51 21t-78 7.5l15 78q54 0 90.5 10.5t58 27t31 38t9.5 44.5q0 37 -22.5 59.5t-65.5 22.5q-26 0 -55 -12t-58 -34l-52 70q45 32 90.5 47t93.5 15q84 0 131 -41t47 -109q0 -63 -36.5 -108.5
t-104.5 -69.5v-4q48 -20 74 -54.5t26 -84.5q0 -48 -18 -86t-49.5 -64.5t-74 -40.5t-92.5 -14q-63 0 -117 30t-90 82z" />
    <glyph glyph-name="four.onum" horiz-adv-x="494" 
d="M283 173l33 167q7 31 15.5 65l16.5 69h-4l-38 -57t-37 -53l-151 -191h165zM382 173h78l-17 -83h-78l-33 -166h-99l33 166h-272l14 73l330 413h124z" />
    <glyph glyph-name="five.onum" horiz-adv-x="494" 
d="M46 79q23 -33 54 -56t79 -23q27 0 51.5 10t43.5 29t30 46t11 60q0 55 -27 83t-74 28q-14 0 -25.5 -2t-22.5 -5.5t-23.5 -9.5l-28.5 -14l-42 34l82 317h321l-18 -91h-228l-46 -164q34 16 72 16q36 0 67 -11t53.5 -33t35.5 -54.5t13 -75.5q0 -58 -21 -104.5t-55.5 -79
t-79.5 -50t-93 -17.5q-63 0 -113 29.5t-85 82.5z" />
    <glyph glyph-name="six.onum" horiz-adv-x="494" 
d="M244 69q25 0 45 13t34.5 33.5t22.5 46t8 51.5q0 48 -21 75t-63 27q-22 0 -53.5 -14.5t-64.5 -55.5q-1 -11 -1 -22v-22q0 -61 25.5 -96.5t67.5 -35.5zM438 507q-16 25 -36.5 39.5t-49.5 14.5q-33 0 -63 -16t-55 -46t-44 -74t-29 -100q31 33 69 49.5t67 16.5
q69 0 112.5 -42t43.5 -124q0 -47 -16 -89.5t-45 -75.5t-68.5 -52.5t-85.5 -19.5q-43 0 -77.5 16t-59 45.5t-37.5 70t-13 89.5q0 97 23 178t64 139t97.5 90t123.5 32q28 0 51 -7.5t41 -19.5t32 -27t24 -30z" />
    <glyph glyph-name="seven.onum" horiz-adv-x="468" 
d="M78 -76q22 89 47.5 167t58.5 147t75 130t97 117h-278l18 91h400l-14 -68q-72 -68 -121 -138.5t-82 -143.5t-53.5 -148.5t-36.5 -153.5h-111v0z" />
    <glyph glyph-name="eight.onum" horiz-adv-x="494" 
d="M225 306q-40 -25 -66 -58.5t-26 -81.5q0 -46 28.5 -74t73.5 -28q22 0 43 7t37 21t25.5 34t9.5 47q0 23 -9.5 41.5t-26.5 34t-40 29zM315 355q30 22 53.5 53.5t23.5 76.5q0 39 -21.5 62.5t-58.5 23.5q-38 0 -66 -25t-28 -71q0 -44 25.5 -70t71.5 -50zM36 154q0 34 11.5 63
t31 52t45.5 40.5t55 29.5v4q-28 28 -42 58.5t-14 68.5q0 42 16 75t43 56t62.5 35t75.5 12q31 0 60.5 -9t52.5 -27t37.5 -46t14.5 -66q0 -62 -32.5 -104.5t-85.5 -71.5v-4q31 -21 56.5 -57.5t25.5 -86.5q0 -44 -18 -78.5t-48.5 -59t-70.5 -37.5t-84 -13q-34 0 -68.5 10
t-62 30t-44.5 51.5t-17 74.5z" />
    <glyph glyph-name="nine.onum" horiz-adv-x="494" 
d="M236 241q24 0 56.5 14.5t67.5 55.5q1 16 1.5 31.5t0.5 32.5q0 61 -25.5 96.5t-67.5 35.5q-27 0 -49 -14t-38 -36t-25 -49.5t-9 -54.5q0 -52 23 -82t65 -30zM69 54q16 -25 36 -39.5t49 -14.5q65 0 118 59.5t76 167.5q-32 -31 -70.5 -46.5t-68.5 -15.5q-34 0 -63 11
t-50.5 33.5t-33.5 55t-12 76.5q0 48 16.5 93t46.5 79t71 54.5t90 20.5q43 0 78 -16.5t59.5 -45.5t37.5 -69.5t13 -89.5q0 -100 -23.5 -183.5t-65.5 -143.5t-99.5 -93.5t-125.5 -33.5q-28 0 -51 7.5t-41 19.5t-32 27t-24 31z" />
    <glyph glyph-name="period" unicode="." horiz-adv-x="267" 
d="M82 -12q-27 0 -43 17.5t-16 44.5q0 16 6 31.5t17.5 27.5t26.5 19.5t33 7.5q27 0 42.5 -18t15.5 -45q0 -16 -6 -31.5t-16.5 -27.5t-26 -19t-33.5 -7z" />
    <glyph glyph-name="comma" unicode="," horiz-adv-x="267" 
d="M-29 -115q52 17 82 47t39 66q-29 0 -47.5 16t-18.5 44q0 30 21 54t57 24q34 0 52 -22t18 -60q0 -42 -13.5 -79.5t-38.5 -67.5t-60 -51.5t-78 -31.5z" />
    <glyph glyph-name="colon" unicode=":" horiz-adv-x="267" 
d="M142 339q-27 0 -43 17.5t-16 44.5q0 16 6 31.5t17.5 27.5t26.5 19.5t33 7.5q27 0 42.5 -18t15.5 -45q0 -16 -6 -31.5t-16.5 -27.5t-26 -19t-33.5 -7zM82 -12q-27 0 -43 17.5t-16 44.5q0 16 6 31.5t17.5 27.5t26.5 19.5t33 7.5q27 0 42.5 -18t15.5 -45q0 -16 -6 -31.5
t-16.5 -27.5t-26 -19t-33.5 -7z" />
    <glyph glyph-name="semicolon" unicode=";" horiz-adv-x="267" 
d="M142 339q-27 0 -43 17.5t-16 44.5q0 16 6 31.5t17.5 27.5t26.5 19.5t33 7.5q27 0 42.5 -18t15.5 -45q0 -16 -6 -31.5t-16.5 -27.5t-26 -19t-33.5 -7zM-29 -115q52 17 82 47t39 66q-29 0 -47.5 16t-18.5 44q0 30 21 54t57 24q34 0 52 -22t18 -60q0 -42 -13.5 -79.5
t-38.5 -67.5t-60 -51.5t-78 -31.5z" />
    <glyph glyph-name="ellipsis" unicode="&#x2026;" horiz-adv-x="968" 
d="M135 -12q-27 0 -43 17.5t-16 44.5q0 16 6 31.5t17.5 27.5t26.5 19.5t33 7.5q27 0 42.5 -18t15.5 -45q0 -16 -6 -31.5t-16.5 -27.5t-26 -19t-33.5 -7zM459 -12q-27 0 -43 17.5t-16 44.5q0 16 6 31.5t17.5 27.5t26.5 19.5t33 7.5q27 0 42.5 -18t15.5 -45q0 -16 -6 -31.5
t-16.5 -27.5t-26 -19t-33.5 -7zM783 -12q-27 0 -43 17.5t-16 44.5q0 16 6 31.5t17.5 27.5t26.5 19.5t33 7.5q27 0 42.5 -18t15.5 -45q0 -16 -6 -31.5t-16.5 -27.5t-26 -19t-33.5 -7z" />
    <glyph glyph-name="exclam" unicode="!" horiz-adv-x="307" 
d="M165 561l17 110h107l-24 -110l-84 -349h-72zM104 -12q-27 0 -43.5 17.5t-16.5 44.5q0 16 6 31.5t17.5 27.5t26.5 19.5t33 7.5q27 0 43 -18t16 -45q0 -16 -6 -31.5t-17 -27.5t-26 -19t-33 -7z" />
    <glyph glyph-name="exclamdown" unicode="&#xa1;" horiz-adv-x="307" 
d="M143 -70l-17 -110h-107l24 110l85 350h72zM205 503q27 0 43 -17.5t16 -44.5q0 -15 -6 -30.5t-17 -28t-26.5 -20t-33.5 -7.5q-27 0 -42.5 18t-15.5 45q0 16 6 31.5t16.5 27.5t26 19t33.5 7z" />
    <glyph glyph-name="question" unicode="?" horiz-adv-x="427" 
d="M151 -12q-27 0 -43 17.5t-16 44.5q0 16 6 31.5t17 27.5t26.5 19.5t33.5 7.5q27 0 42.5 -18t15.5 -45q0 -16 -6 -31.5t-16.5 -27.5t-26 -19t-33.5 -7zM145 217q3 41 18.5 72t36 55.5t44 45t43.5 40.5t33 41.5t13 48.5q0 35 -20 55t-55 20q-24 0 -47 -12t-43 -33l-56 62
q32 32 73 51t86 19q76 0 121.5 -38t45.5 -107q0 -40 -13.5 -69.5t-34.5 -54t-46 -46.5t-47.5 -45t-39 -50t-20.5 -63z" />
    <glyph glyph-name="questiondown" unicode="&#xbf;" horiz-adv-x="427" 
d="M284 504q27 0 43 -17.5t16 -44.5q0 -16 -6 -31.5t-17 -27.5t-26.5 -19.5t-33.5 -7.5q-27 0 -42.5 18t-15.5 45q0 16 6 31.5t17 27.5t26 19t33 7zM290 275q-3 -41 -18.5 -72t-36 -55.5t-44 -45t-43.5 -40.5t-33 -41.5t-13 -48.5q0 -35 20 -55t55 -20q24 0 47 12t44 33
l55 -62q-32 -32 -73 -51t-86 -19q-75 0 -120.5 38t-45.5 107q0 40 13.5 69.5t34.5 54t46 46.5t47 45t38.5 50t20.5 63z" />
    <glyph glyph-name="quotesingle" unicode="'" horiz-adv-x="267" 
d="M146 561l17 110h106l-24 -110l-49 -167h-72z" />
    <glyph glyph-name="quotedbl" unicode="&#x22;" horiz-adv-x="460" 
d="M146 561l17 110h106l-24 -110l-49 -167h-72zM339 561l17 110h106l-24 -110l-49 -167h-72z" />
    <glyph glyph-name="quoteleft" unicode="&#x2018;" horiz-adv-x="267" 
d="M275 635q-51 -22 -77.5 -56.5t-27.5 -61.5h5q26 0 43.5 -14t17.5 -40q0 -28 -18.5 -48.5t-50.5 -20.5q-29 0 -46.5 21.5t-17.5 60.5q0 40 12 73t33 59.5t48.5 45.5t59.5 30z" />
    <glyph glyph-name="quoteright" unicode="&#x2019;" horiz-adv-x="267" 
d="M109 457q51 22 77.5 56.5t27.5 61.5h-5q-26 0 -43.5 14t-17.5 40q0 28 19 48.5t51 20.5q29 0 46 -21.5t17 -60.5q0 -40 -12 -73t-33 -59.5t-49 -45.5t-59 -30z" />
    <glyph glyph-name="quotedblleft" unicode="&#x201c;" horiz-adv-x="460" 
d="M275 635q-51 -22 -77.5 -56.5t-27.5 -61.5h5q26 0 43.5 -14t17.5 -40q0 -28 -18.5 -48.5t-50.5 -20.5q-29 0 -46.5 21.5t-17.5 60.5q0 40 12 73t33 59.5t48.5 45.5t59.5 30zM468 635q-51 -22 -77.5 -56.5t-27.5 -61.5h5q26 0 43.5 -14t17.5 -40q0 -28 -18.5 -48.5
t-50.5 -20.5q-29 0 -46.5 21.5t-17.5 60.5q0 40 12 73t33 59.5t48.5 45.5t59.5 30z" />
    <glyph glyph-name="quotedblright" unicode="&#x201d;" horiz-adv-x="460" 
d="M109 457q51 22 77.5 56.5t27.5 61.5h-5q-26 0 -43.5 14t-17.5 40q0 28 19 48.5t51 20.5q29 0 46 -21.5t17 -60.5q0 -40 -12 -73t-33 -59.5t-49 -45.5t-59 -30zM302 457q51 22 77.5 56.5t27.5 61.5h-5q-26 0 -43.5 14t-17.5 40q0 28 19 48.5t51 20.5q29 0 46 -21.5
t17 -60.5q0 -40 -12 -73t-33 -59.5t-49 -45.5t-59 -30z" />
    <glyph glyph-name="quotesinglbase" unicode="&#x201a;" horiz-adv-x="267" 
d="M-3 -103q51 22 77.5 56.5t27.5 61.5h-5q-26 0 -43.5 14t-17.5 40q0 28 19 48.5t51 20.5q29 0 46 -21.5t17 -60.5q0 -40 -12 -73t-33 -59.5t-49 -45.5t-59 -30z" />
    <glyph glyph-name="quotedblbase" unicode="&#x201e;" horiz-adv-x="347" 
d="M-3 -103q51 22 77.5 56.5t27.5 61.5h-5q-26 0 -43.5 14t-17.5 40q0 28 19 48.5t51 20.5q29 0 46 -21.5t17 -60.5q0 -40 -12 -73t-33 -59.5t-49 -45.5t-59 -30zM189 -103q51 22 77.5 56.5t27.5 61.5h-5q-26 0 -43.5 14t-17.5 40q0 28 19 48.5t51 20.5q29 0 46 -21.5
t17 -60.5q0 -40 -12 -73t-33 -59.5t-49 -45.5t-59 -30z" />
    <glyph glyph-name="guilsinglleft" unicode="&#x2039;" horiz-adv-x="262" 
d="M40 216l14 80l155 144l35 -38l-137 -154l81 -157l-45 -29z" />
    <glyph glyph-name="guilsinglright" unicode="&#x203a;" horiz-adv-x="262" 
d="M229 286l-15 -80l-154 -144l-35 38l137 154l-82 157l46 29z" />
    <glyph glyph-name="guillemotleft" unicode="&#xab;" horiz-adv-x="436" 
d="M40 216l14 80l155 144l35 -38l-137 -154l81 -157l-45 -29zM214 216l14 80l155 144l35 -38l-137 -154l81 -157l-45 -29z" />
    <glyph glyph-name="guillemotright" unicode="&#xbb;" horiz-adv-x="436" 
d="M229 286l-15 -80l-154 -144l-35 38l137 154l-82 157l46 29zM403 286l-15 -80l-154 -144l-35 38l137 154l-82 157l46 29z" />
    <glyph glyph-name="hyphen" unicode="-" horiz-adv-x="310" 
d="M50 292h227l-17 -79h-226z" />
    <glyph glyph-name="uni00AD" unicode="&#xad;" horiz-adv-x="310" 
d="M51 292h227l-17 -79h-226z" />
    <glyph glyph-name="endash" unicode="&#x2013;" horiz-adv-x="463" 
d="M49 288h379l-15 -72h-378z" />
    <glyph glyph-name="emdash" unicode="&#x2014;" horiz-adv-x="770" 
d="M49 288h687l-15 -72h-686z" />
    <glyph glyph-name="figuredash" unicode="&#x2012;" horiz-adv-x="494" 
d="M49 288h411l-16 -72h-409z" />
    <glyph glyph-name="uni2015" unicode="&#x2015;" horiz-adv-x="770" 
d="M49 288h687l-15 -72h-686z" />
    <glyph glyph-name="periodcentered" unicode="&#xb7;" horiz-adv-x="267" 
d="M136 254q-27 0 -43 17.5t-16 44.5q0 16 6 31.5t17.5 27.5t26.5 19.5t33 7.5q27 0 42.5 -18t15.5 -45q0 -16 -6 -31.5t-16.5 -27.5t-26 -19t-33.5 -7z" />
    <glyph glyph-name="bullet" unicode="&#x2022;" horiz-adv-x="313" 
d="M146 136q-46 0 -76 31t-30 81q0 26 9 51.5t26 45.5t41 32.5t54 12.5q45 0 75.5 -31t30.5 -81q0 -26 -9 -51.5t-26 -45.5t-41 -32.5t-54 -12.5z" />
    <glyph glyph-name="underscore" unicode="_" horiz-adv-x="482" 
d="M428 -67l-13 -64h-457l14 64h456z" />
    <glyph glyph-name="parenleft" unicode="(" horiz-adv-x="310" 
d="M118 -178q-23 64 -40.5 146t-17.5 164q0 87 15.5 165t45.5 151t73.5 143t99.5 141l63 -33q-106 -138 -157.5 -281t-51.5 -295q0 -33 2.5 -69.5t7 -72.5t12 -69.5t18.5 -61.5l-70 -28v0z" />
    </font>
</defs>
</svg>
